<?xml version="1.0" standalone="no"?>
<!DOCTYPE svg PUBLIC "-//W3C//DTD SVG 1.1//EN" "http://www.w3.org/Graphics/SVG/1.1/DTD/svg11.dtd" >
<svg xmlns="http://www.w3.org/2000/svg">
<metadata>
This is a custom SVG webfont generated by Font Squirrel.
Copyright   : Copyright c 2012 by Stairsfor All rights reserved
Designer    : Andrij Shevchenko
Foundry     : Stairsforcom
Foundry URL : httpstairsforcom
</metadata>
<defs>
<font id="ArsenalBold" horiz-adv-x="1073" >
<font-face units-per-em="2048" ascent="1536" descent="-512" />
<missing-glyph horiz-adv-x="522" />
<glyph unicode=" "  horiz-adv-x="522" />
<glyph unicode="&#x09;" horiz-adv-x="522" />
<glyph unicode="&#xa0;" horiz-adv-x="522" />
<glyph unicode="!" horiz-adv-x="681" d="M186 131q1 70 50 123q45 43 114 43q68 0 113 -43q49 -53 49 -123q0 -72 -49 -121q-45 -43 -113 -43q-70 0 -114 43q-49 49 -50 121zM193 1411v125h311v-125l-88 -940h-137z" />
<glyph unicode="&#x22;" horiz-adv-x="815" d="M63 1536l250 -8l-96 -537h-129zM455 1536l250 -8l-97 -537h-129z" />
<glyph unicode="#" horiz-adv-x="1060" d="M92 381v131h164l66 305h-230v131h256l60 277l110 -33l-51 -244h240l49 238l110 -33l-43 -205h144v-131h-170l-64 -305h234v-131h-262l-58 -279l-110 35l51 244h-242l-49 -240l-111 35l43 205h-137zM375 512h239l64 305h-240z" />
<glyph unicode="$" horiz-adv-x="854" d="M49 270l76 107q10 -14 28.5 -34.5t78 -55.5t120.5 -35q76 0 117 39t41 102q0 57 -43 96t-104.5 66t-123 59.5t-104.5 97t-43 156.5q0 119 66.5 197t175.5 106l26 263h134l26 -252q53 -8 110.5 -24.5t88.5 -30.5l31 -13l-37 -137q-133 76 -232 76q-63 0 -98 -31t-35 -82 q0 -57 46 -98t111.5 -71t131 -64.5t112 -99t46.5 -156.5q0 -125 -71 -212t-204 -112l-20 -229h-133l-29 221q-59 6 -111.5 24.5t-83 40t-53 41t-32.5 32.5z" />
<glyph unicode="%" horiz-adv-x="1775" d="M74 954q0 186 95 299t261 113q164 0 261 -114t97 -298q0 -188 -94 -302.5t-264 -114.5q-174 0 -265 113.5t-91 303.5zM299 958q0 -154 30.5 -223t98.5 -69q137 -1 137 292q0 152 -32.5 216.5t-102.5 64.5t-100.5 -64.5t-30.5 -216.5zM528 16l553 1284l138 -40l-555 -1285 zM987 379q0 186 95.5 299t260.5 113q164 0 261.5 -114t97.5 -298q0 -188 -94.5 -303t-264.5 -115q-174 0 -265 113.5t-91 304.5zM1212 383q0 -154 31 -223.5t98 -69.5q138 0 138 293q0 152 -33 216.5t-102.5 64.5t-100.5 -64.5t-31 -216.5z" />
<glyph unicode="&#x26;" horiz-adv-x="1312" d="M74 367q0 242 266 331q-178 94 -178 301q0 164 107.5 258.5t283.5 94.5q61 0 130 -16.5t107 -31.5l37 -16l-22 -133q-111 59 -197 59q-84 0 -126 -53t-42 -176q0 -217 113 -225h229l133 264h107v-264h227v-135h-227v-283q0 -137 23.5 -180t91.5 -43q29 0 57.5 6t42.5 13 l14 7l9 -118q-51 -49 -207 -50q-168 0 -234 101q-109 -100 -295 -101q-229 0 -339.5 105.5t-110.5 284.5zM365 371q0 -139 47 -196.5t159 -57.5q129 0 201 90q-8 47 -8 119v299h-229q-74 -2 -122 -63.5t-48 -190.5z" />
<glyph unicode="'" horiz-adv-x="423" d="M63 1536l250 -8l-96 -537h-129z" />
<glyph unicode="(" horiz-adv-x="735" d="M158 557.5q0 190.5 40 357t97 269t114.5 177.5t97.5 106l40 32l117 -72q-10 -10 -26.5 -29.5t-58.5 -94t-74 -164.5t-58.5 -247t-26.5 -335q0 -180 25.5 -335.5t60.5 -248t70.5 -159t61.5 -93.5l26 -26l-109 -70q-16 10 -43 31.5t-95.5 101.5t-120.5 177.5t-95 264.5 t-43 357.5z" />
<glyph unicode=")" horiz-adv-x="735" d="M72 -305q10 10 26.5 30.5t57.5 96.5t72.5 167t58 246.5t26.5 331.5t-24.5 330t-60 247t-71.5 160.5t-61 95.5l-24 27l108 72q16 -10 43 -31.5t94.5 -101.5t119.5 -177t95 -264t43 -357.5t-40.5 -357.5t-99 -269.5t-116 -177t-98.5 -106.5l-41 -32z" />
<glyph unicode="*" horiz-adv-x="839" d="M20 1028l78 264l273 -198l-76 370h252l-84 -368l278 196l76 -264l-325 -31l251 -252l-202 -163l-121 350l-123 -350l-201 163l250 248z" />
<glyph unicode="+" horiz-adv-x="933" d="M63 487v152h334v377h146v-377h327v-152h-327v-378h-146v378h-334z" />
<glyph unicode="," horiz-adv-x="542" d="M115 178q0 66 45 111q43 39 100 39t102 -39q20 -23 31 -45q25 -51 25 -119q0 -119 -65.5 -254t-162.5 -213l-69 76q68 61 110.5 141t49.5 156q-2 0 -10.5 -1t-12.5 -1q-55 0 -98 39q-45 43 -45 110z" />
<glyph unicode="-" horiz-adv-x="681" d="M63 487v152h558v-152h-558z" />
<glyph unicode="." horiz-adv-x="608" d="M139 131q0 70 49 123q45 43 115 43q66 0 113 -43q49 -53 49 -123q0 -72 -49 -121q-47 -43 -113 -43q-70 0 -115 43q-49 49 -49 121z" />
<glyph unicode="/" horiz-adv-x="935" d="M16 -512l752 2048h184l-751 -2048h-185z" />
<glyph unicode="0" horiz-adv-x="1185" d="M90 662q0 690 504 690q502 0 502 -690q0 -684 -502 -685q-504 0 -504 685zM397 662q0 -319 41 -431t156 -112t156 111.5t41 431.5q0 322 -41 435t-156 113t-156 -113.5t-41 -434.5z" />
<glyph unicode="1" horiz-adv-x="815" d="M86 1157l307 174h219v-1331h-268v1143l-203 -109z" />
<glyph unicode="2" horiz-adv-x="991" d="M70 0v211q68 27 152.5 89t171.5 155.5t146.5 223.5t59.5 263q0 150 -45 204t-149 54q-47 0 -113 -24.5t-108 -50.5l-42 -25l-28 143q18 12 51 30.5t122 48.5t167 30q219 0 332.5 -107.5t113.5 -283.5q0 -106 -47 -212t-128 -197t-163 -162t-176 -134h533v-256h-850z" />
<glyph unicode="3" horiz-adv-x="1007" d="M72 127l73 121q14 -14 39 -34.5t99.5 -55.5t144.5 -35q111 0 162 61.5t51 202.5q0 133 -35 189.5t-112 56.5q-51 0 -107 -55l-4 -5l-84 95l328 405h-492l15 258h718v-172l-327 -395h12q162 0 270.5 -101.5t108.5 -277.5q0 -193 -138.5 -300.5t-330.5 -107.5 q-121 0 -218.5 38t-134.5 75z" />
<glyph unicode="4" horiz-adv-x="1091" d="M61 446q90 164 185.5 429.5t140.5 488.5l260 -33q-80 -340 -407 -864h387l73 663h205v-663h131v-117l-131 -24v-326h-278v326h-551z" />
<glyph unicode="5" horiz-adv-x="1001" d="M45 125l82 115q10 -12 30.5 -32t87 -52.5t138.5 -32.5q119 0 183.5 69.5t64.5 233.5q0 283 -209 283q-104 0 -152 -64l-10 -20l-96 14l78 692h610l-14 -266h-486l-24 -244q59 18 118 19q217 0 346.5 -104.5t129.5 -303.5q0 -152 -80 -258t-192.5 -151.5t-243.5 -45.5 q-111 0 -201 37t-125 74z" />
<glyph unicode="6" horiz-adv-x="1085" d="M90 545q0 123 10 194q74 612 478 613q66 0 139.5 -20.5t115.5 -40.5l41 -19l-34 -137q-129 74 -236 73q-119 0 -177 -94t-67 -336q106 84 228 84q190 0 307 -110.5t117 -325.5q0 -211 -120 -330t-333 -119q-223 0 -346 138.5t-123 429.5zM383 455q0 -195 40 -268.5 t136 -73.5q88 0 124 72.5t36 244.5q0 162 -38 232.5t-126 70.5q-96 0 -166 -96q-6 -55 -6 -182z" />
<glyph unicode="7" horiz-adv-x="923" d="M74 1059v272h819v-215q-123 -217 -235.5 -535.5t-170.5 -580.5h-294q43 158 138 371t162.5 339t192.5 349h-612z" />
<glyph unicode="8" horiz-adv-x="1097" d="M74 360q0 221 266 314q-240 82 -240 315q0 174 123 268.5t326 94.5t325.5 -95.5t122.5 -269.5q0 -217 -245 -309q274 -68 274 -322q0 -379 -477 -379q-475 0 -475 383zM381 365q0 -141 42 -201t126 -60t127 61t43 200q0 129 -54.5 185t-123.5 64q-160 -27 -160 -249z M393 981q0 -221 156 -256q156 31 156 256q0 135 -37 189.5t-119 54.5t-119 -54.5t-37 -189.5z" />
<glyph unicode="9" horiz-adv-x="1085" d="M74 883q0 211 126 340t337 129q457 0 456 -568q0 -86 -4 -143q-25 -334 -167 -499t-339 -165q-96 0 -169.5 23t-100.5 45l-27 23l60 133q88 -80 219 -80q242 0 258 426q-90 -90 -227 -90q-190 0 -306 105.5t-116 320.5zM365 893q0 -162 37.5 -234.5t125.5 -72.5 q137 0 170 141q4 86 4 147q0 190 -37.5 266.5t-127.5 76.5q-172 0 -172 -324z" />
<glyph unicode=":" horiz-adv-x="610" d="M139 131q0 70 49 123q45 43 115 43q66 0 113 -43q49 -53 49 -123q0 -72 -49 -121q-47 -43 -113 -43q-70 0 -115 43q-49 49 -49 121zM139 850q0 72 49 123q45 43 115 43q66 0 113 -43q49 -53 49 -123q0 -72 -49 -121q-47 -43 -113 -43q-70 0 -115 43q-49 49 -49 121z" />
<glyph unicode=";" horiz-adv-x="608" d="M139 850q0 72 49 123q45 43 115 43q66 0 113 -43q49 -53 49 -123q0 -72 -49 -121q-47 -43 -113 -43q-70 0 -115 43q-49 49 -49 121zM154 178q0 66 45 111q43 39 100 39t102 -39q20 -23 31 -45q25 -51 25 -119q0 -119 -65.5 -254t-162.5 -213l-69 76q68 61 110.5 141 t48.5 156q-2 0 -10 -1t-12 -1q-55 0 -98 39q-45 43 -45 110z" />
<glyph unicode="&#x3c;" horiz-adv-x="774" d="M96 645l490 463l80 -94l-330 -367l338 -368l-88 -95z" />
<glyph unicode="=" d="M63 289v151h949v-151h-949zM63 686v152h949v-152h-949z" />
<glyph unicode="&#x3e;" horiz-adv-x="774" d="M109 279l321 366l-321 369l79 94l490 -463l-490 -461z" />
<glyph unicode="?" horiz-adv-x="911" d="M117 1468q14 10 41.5 24.5t113.5 39t174 24.5q195 0 296.5 -107.5t101.5 -256.5q0 -96 -34 -171t-83 -117t-108.5 -85t-108.5 -77.5t-83 -90t-34 -127.5q0 -16 4 -53l-96 -8q-29 88 -29 155q0 63 27 111.5t65.5 83.5t76.5 74t64.5 106.5t26.5 159.5q0 139 -37.5 201.5 t-123.5 62.5q-51 0 -109.5 -20.5t-91.5 -39.5l-33 -20zM199 131q0 70 49 123q47 43 114.5 43t112.5 -43q49 -53 49 -123q0 -72 -49 -121q-45 -43 -112.5 -43t-114.5 43q-49 49 -49 121z" />
<glyph unicode="@" horiz-adv-x="1765" d="M94 377q0 432 222.5 683t639.5 251q356 0 539.5 -187.5t183.5 -531.5q0 -317 -109.5 -473t-295.5 -156q-160 0 -209 90q-70 -92 -207 -92q-158 0 -253 109.5t-95 322.5q0 195 107.5 320t269.5 125q106 0 186 -72l37 35h117v-555q0 -96 16.5 -133t56.5 -37q49 0 82 35.5 t57.5 154.5t24.5 320q0 315 -122.5 458.5t-385.5 143.5q-621 0 -620 -811q0 -748 590 -748q84 0 161.5 18.5t128 45t89 53.5t56.5 45l17 19l58 -113q-6 -8 -17.5 -22.5t-56.5 -50.5t-98.5 -62.5t-144.5 -49t-193 -22.5q-424 0 -628 229.5t-204 657.5zM743 393 q0 -172 40 -244.5t128 -72.5q86 0 125 92v494q-39 63 -123 63q-92 0 -131 -77t-39 -255z" />
<glyph unicode="A" horiz-adv-x="1245" d="M39 0l442 1331h314l413 -1331h-299l-114 373h-463l-121 -373h-172zM373 502h383l-183 626h-4z" />
<glyph unicode="B" horiz-adv-x="1165" d="M158 0v1331h405q231 0 351 -100.5t120 -245.5q0 -190 -198 -291q117 -37 186.5 -116.5t69.5 -194.5q0 -174 -132.5 -278.5t-386.5 -104.5h-415zM440 133h127q111 0 174.5 64.5t63.5 195.5q0 223 -182 223h-183v-483zM440 739h168q57 0 103.5 54.5t46.5 175.5 q0 119 -55.5 174t-147.5 55h-115v-459z" />
<glyph unicode="C" horiz-adv-x="1179" d="M74 655q0 319 160.5 508t445.5 189q94 0 196.5 -27t157.5 -52l56 -26l-29 -149q-195 100 -346 100q-172 0 -251 -121t-79 -411q0 -289 84 -412t260 -123q61 0 118.5 19.5t96.5 47t68.5 56.5t43.5 48l13 20l90 -99q-6 -10 -16 -26.5t-50 -58.5t-89.5 -74.5t-133.5 -59.5 t-180 -27q-301 0 -458.5 181.5t-157.5 496.5z" />
<glyph unicode="D" horiz-adv-x="1325" d="M158 0v1331h452q309 0 476 -171t167 -498q0 -324 -163.5 -493t-477.5 -169h-454zM440 145h174q176 0 251 116t75 401q0 287 -76 405.5t-254 118.5h-170v-1041z" />
<glyph unicode="E" d="M158 0v1331h798v-147h-516v-439h455v-143h-455v-455h545v-147h-827z" />
<glyph unicode="F" horiz-adv-x="999" d="M158 0v1331h809v-147h-527v-492h459v-143h-459v-549h-282z" />
<glyph unicode="G" horiz-adv-x="1280" d="M74 661.5q0 323.5 161.5 507t452.5 183.5q94 0 197.5 -27t158.5 -52l56 -26l-31 -149q-193 100 -344 100q-186 0 -263 -124t-77 -415q0 -528 309 -528q59 0 104.5 20.5t69 54.5t33.5 58.5t17 50.5v248h-207v139h446v-702h-123l-71 117q-106 -139 -318 -140 q-272 0 -421.5 180.5t-149.5 504z" />
<glyph unicode="H" horiz-adv-x="1341" d="M158 0v1331h282v-581h461v581h283v-1331h-283v606h-461v-606h-282z" />
<glyph unicode="I" horiz-adv-x="600" d="M158 0v1331h282v-1331h-282z" />
<glyph unicode="J" horiz-adv-x="786" d="M8 61l62 119q47 -57 141 -57q78 0 114.5 66.5t36.5 248.5v893h283v-893q0 -254 -91 -357.5t-282 -103.5q-92 0 -157.5 21.5t-85.5 42.5z" />
<glyph unicode="K" horiz-adv-x="1267" d="M158 0v1331h282v-616l121 88l391 528h197l-404 -520l498 -811h-358l-357 598l-88 -61v-537h-282z" />
<glyph unicode="L" horiz-adv-x="980" d="M158 0v1331h282v-1184h516v-147h-798z" />
<glyph unicode="M" horiz-adv-x="1753" d="M158 0l16 1331h342l373 -981h8l367 981h317l14 -1331h-276l-14 1008h-7l-370 -1008h-211l-371 1008h-6l-6 -1008h-176z" />
<glyph unicode="N" horiz-adv-x="1333" d="M158 0v1331h293l559 -903h4l-15 92v811h177v-1331h-222l-632 999h-5l17 -118v-881h-176z" />
<glyph unicode="O" horiz-adv-x="1357" d="M74 663.5q0 319.5 156.5 504t445.5 184.5q291 0 449.5 -185.5t158.5 -503t-158.5 -502t-449.5 -184.5q-289 0 -445.5 183.5t-156.5 503zM385 664q0 -285 67.5 -413t223.5 -128q158 0 226.5 128t68.5 413q0 283 -70 411.5t-225 128.5q-154 0 -222.5 -129t-68.5 -411z" />
<glyph unicode="P" horiz-adv-x="1091" d="M158 0v1331h407q227 0 353 -113.5t126 -336.5q0 -233 -143 -349t-330 -116h-131v-416h-282zM440 547h99q102 0 151 70.5t49 250.5q0 182 -49 256t-151 74h-99v-651z" />
<glyph unicode="Q" horiz-adv-x="1357" d="M74 664q0 319 156.5 503.5t445.5 184.5q293 0 450.5 -178.5t157.5 -495.5q0 -268 -114.5 -448.5t-325.5 -231.5q135 -274 276 -274q27 0 58 12l12 -119q-55 -20 -121 -20q-150 0 -287 112.5t-204 274.5q-244 31 -374 210t-130 470zM385 664q0 -281 67.5 -411t223 -130 t225.5 131t70 410q0 276 -71 408t-224 132q-152 0 -221.5 -131t-69.5 -409z" />
<glyph unicode="R" horiz-adv-x="1183" d="M158 0v1331h409q225 0 352.5 -109.5t127.5 -308.5q0 -129 -63.5 -224t-166.5 -148l307 -541h-325l-250 483h-109v-483h-282zM440 618h105q111 0 153.5 61.5t42.5 221.5t-45.5 228.5t-156.5 68.5h-99v-580z" />
<glyph unicode="S" horiz-adv-x="1007" d="M63 139l78 119q12 -14 35 -35.5t102.5 -57.5t170.5 -36q96 0 149 51t53 135q0 70 -55 123.5t-133 93t-156 87t-133 133.5t-55 202q0 182 119.5 290t312.5 108q82 0 164 -23.5t123 -47.5l41 -24l-33 -139q-133 90 -277 90q-78 0 -125 -44t-47 -122q0 -66 40 -118 t99.5 -82.5t130 -72.5t130 -85t99.5 -122t40 -183q0 -186 -134 -294t-335 -108q-86 0 -158.5 16.5t-115.5 40t-74 48t-43 41.5z" />
<glyph unicode="T" horiz-adv-x="1056" d="M29 1184v147h999v-147h-356v-1184h-285v1184h-358z" />
<glyph unicode="U" horiz-adv-x="1257" d="M139 483v848h285v-784q0 -221 60.5 -317.5t189.5 -96.5q137 0 202.5 100.5t65.5 313.5v784h174v-848q0 -506 -487 -506q-242 0 -366 133.5t-124 372.5z" />
<glyph unicode="V" horiz-adv-x="1179" d="M18 1331h299l316 -1124h6l342 1124h178l-428 -1331h-313z" />
<glyph unicode="W" horiz-adv-x="1787" d="M18 1331h301l246 -1007h4l273 1007h227l281 -1001h6l231 1001h180l-348 -1331h-241l-279 983h-4l-277 -983h-245z" />
<glyph unicode="X" horiz-adv-x="1189" d="M16 0l414 647l-395 684h354l246 -477h6l285 477h200l-389 -614l437 -717h-353l-284 508h-7l-301 -508h-213z" />
<glyph unicode="Y" horiz-adv-x="1071" d="M-14 1331h317l293 -604h4l287 604h196l-399 -786v-545h-285v514z" />
<glyph unicode="Z" horiz-adv-x="1161" d="M86 0v119l641 1065h-604v147h946v-123l-641 -1061h639v-147h-981z" />
<glyph unicode="[" horiz-adv-x="790" d="M174 -182v1638h600v-141h-362v-1358h362v-139h-600z" />
<glyph unicode="\" horiz-adv-x="935" d="M-14 1536h184l750 -2048h-183z" />
<glyph unicode="]" horiz-adv-x="790" d="M14 -43h363v1358h-363v139h602v-1636h-602v139z" />
<glyph unicode="^" horiz-adv-x="731" d="M61 1087l304 343l305 -343l-80 -90l-225 217l-224 -217z" />
<glyph unicode="_" horiz-adv-x="1390" d="M63 -180h1264v-152h-1264v152z" />
<glyph unicode="`" horiz-adv-x="495" d="M-74 1440l217 71l174 -301l-127 -34z" />
<glyph unicode="a" horiz-adv-x="1050" d="M55 246q0 96 54.5 166.5t147.5 109.5t178 57.5t183 26.5v60q0 139 -38.5 191t-130.5 52q-43 0 -103.5 -18.5t-100.5 -37.5l-40 -19l-27 131q158 82 318 82q193 0 294 -81t101 -278v-465q0 -108 42 -108h1l70 14l8 -106q-141 -45 -228 -46q-59 0 -92 30t-43 97h-10 q-2 -6 -7 -14t-26.5 -29.5t-49.5 -39t-77 -31t-108 -13.5q-143 0 -229.5 72t-86.5 197zM340 281q0 -82 33 -124t88 -42q49 0 89 28.5t54 56.5l14 27v271q-137 -14 -207.5 -64.5t-70.5 -152.5z" />
<glyph unicode="b" horiz-adv-x="1116" d="M123 0v1528l272 16v-588h8q6 10 21.5 26.5t79 44.5t145.5 28q182 0 295 -144.5t113 -378.5q0 -254 -114 -408.5t-314 -154.5q-82 0 -149.5 24.5t-94.5 50.5l-27 26h-4l-45 -70h-186zM395 201q4 -8 14.5 -20.5t52.5 -34t95 -21.5q113 0 160 91t47 310q0 207 -44 288 t-153 81q-53 0 -96 -26.5t-59 -53.5l-17 -27v-587z" />
<glyph unicode="c" horiz-adv-x="913" d="M59 506q0 250 131.5 395.5t362.5 145.5q63 0 138 -19.5t118 -40.5l43 -20l-27 -131q-143 73 -238 73h-3q-119 0 -174.5 -83t-55.5 -316q0 -227 57.5 -311t163.5 -84q45 0 86 14t67 34.5t45.5 42t27.5 36.5l8 14l96 -61q-4 -8 -10 -23.5t-35 -52.5t-65.5 -65.5t-102 -52.5 t-145.5 -24q-236 0 -362 135.5t-126 393.5z" />
<glyph unicode="d" horiz-adv-x="1116" d="M59 489q0 250 114 402.5t302 152.5q80 0 139.5 -19t79.5 -39l21 -19h6v561l272 16v-1544h-227l-31 92h-2q-6 -12 -19.5 -31.5t-76 -51.5t-150.5 -32q-193 0 -310.5 139.5t-117.5 372.5zM352 498q0 -209 46.5 -285t150.5 -76q51 0 94 23.5t60 47.5l18 23v590 q-57 68 -162 68q-111 0 -159 -88t-48 -303z" />
<glyph unicode="e" horiz-adv-x="970" d="M59 494q0 266 123 408t332 142q190 0 295.5 -119.5t105.5 -342.5q0 -37 -4 -69t-8 -46l-4 -14h-551q2 -184 54.5 -261t168.5 -77q70 0 129.5 33.5t83.5 67.5l25 34l92 -72q-4 -8 -12 -21.5t-39 -48t-69 -61.5t-103.5 -48.5t-138.5 -21.5q-227 0 -353.5 126t-126.5 391z M348 586h314v47q0 156 -33 218t-115 62q-84 0 -121 -69.5t-45 -257.5z" />
<glyph unicode="f" horiz-adv-x="708" d="M72 866v123l100 29v151q0 387 324 387q51 0 108.5 -17t88.5 -35l32 -17l-35 -117q-88 49 -145 49q-55 0 -78 -53t-23 -227v-115h256v-158h-256v-866h-272v866h-100z" />
<glyph unicode="g" horiz-adv-x="944" d="M20 -195q0 172 130 252q-23 49 -23 111q0 123 90 201q-158 100 -158 307q0 184 119 276t303 92q82 0 156 -22l276 -2v-121l-98 -6q57 -86 57 -217q0 -182 -107.5 -278.5t-289.5 -96.5q-70 0 -141 16q-39 -31 -39 -75q0 -84 209 -84q442 0 442 -324q0 -180 -117.5 -275.5 t-349 -95.5t-345.5 92.5t-114 249.5zM211 -188q0 -209 268 -209q240 0 240 168q0 155 -258 155q-121 0 -199 33q-51 -55 -51 -147zM322 676q0 -250 147 -250q70 0 104.5 59.5t34.5 194.5t-34.5 184t-106.5 49t-108.5 -50t-36.5 -187z" />
<glyph unicode="h" horiz-adv-x="1099" d="M123 0v1528l272 16v-590h8q10 10 30 25.5t88.5 40t148.5 24.5q160 0 237.5 -85t77.5 -265v-694h-270v672q0 119 -31 160.5t-109 41.5q-51 0 -96 -18t-64 -37l-20 -18v-801h-272z" />
<glyph unicode="i" horiz-adv-x="518" d="M104 1335q1 68 48 115q43 41 108 41q63 0 105 -39q45 -47 45 -117q0 -72 -45 -118q-45 -39 -105 -39q-61 0 -108 41q-47 47 -48 116zM123 0v1024h272v-1024h-272z" />
<glyph unicode="j" horiz-adv-x="573" d="M-102 -473l45 123q51 -39 108 -39q66 0 95.5 73t29.5 257v1083h273v-1083q0 -248 -97.5 -362t-263.5 -114q-59 0 -106.5 15.5t-65.5 31.5zM160 1335q0 68 47 115q43 41 108 41q63 0 105 -39q45 -47 45 -117q0 -72 -45 -118q-45 -39 -105 -39q-61 0 -108 41 q-47 47 -47 116z" />
<glyph unicode="k" horiz-adv-x="1005" d="M121 0v1528l272 16v-954l142 96l217 338h168l-267 -381l332 -643h-311l-230 479l-51 -33v-446h-272z" />
<glyph unicode="l" horiz-adv-x="520" d="M123 0v1528l272 16v-1544h-272z" />
<glyph unicode="m" horiz-adv-x="1556" d="M123 0v1024h219l35 -92h6q10 12 31.5 30.5t92.5 50t146 31.5q166 0 226 -108q134 108 287 108h3q145 0 209 -76.5t64 -252.5v-715h-273v694q0 111 -25.5 147t-82.5 36q-88 0 -146 -78q4 -49 5 -80v-719h-273v694q0 109 -25.5 146t-80.5 37q-53 0 -92 -27t-54 -47v-803 h-272z" />
<glyph unicode="n" horiz-adv-x="1101" d="M123 0v1024h219l35 -84h8q8 12 27.5 29.5t93.5 46t168 28.5q315 0 315 -350v-694h-272v639q0 137 -30 186t-107 49q-53 0 -99.5 -18t-65.5 -37l-20 -18v-801h-272z" />
<glyph unicode="o" horiz-adv-x="1075" d="M59 512q0 256 124 395.5t354 139.5q231 0 355 -139.5t124 -395.5q0 -254 -128 -394.5t-351 -140.5q-229 0 -353.5 139.5t-124.5 395.5zM352 514q0 -223 41 -312t143.5 -89t143.5 89t41 310t-41 309t-143.5 88t-143.5 -88t-41 -307z" />
<glyph unicode="p" horiz-adv-x="1116" d="M123 -520v1544h219l37 -92h6q10 12 29.5 31.5t91.5 51.5t158 32q182 0 286.5 -139.5t104.5 -375.5q0 -252 -108.5 -403.5t-297.5 -151.5q-80 0 -142.5 19.5t-83.5 39.5l-22 19h-6v-567zM395 201q47 -68 152 -68q115 0 165 87t50 306q0 207 -47.5 284t-147.5 77 q-49 0 -91 -21.5t-59.5 -39t-21.5 -27.5v-598z" />
<glyph unicode="q" horiz-adv-x="1116" d="M61 489q0 250 119 404t309 154q76 0 140.5 -21.5t90.5 -43.5l25 -21h3l61 63h182v-1536l-272 -8v594h-8q-2 -4 -7.5 -10.5t-25 -22.5t-45 -29.5t-70.5 -24t-96 -10.5q-182 0 -294 139.5t-112 372.5zM352 498q0 -215 50.5 -288t156.5 -73q51 0 90 21.5t51.5 37t18.5 27.5 v602q-49 66 -152 66q-109 0 -162 -85t-53 -308z" />
<glyph unicode="r" horiz-adv-x="727" d="M123 0v1024h192l45 -172h9q2 8 4 21.5t16 46t32.5 58.5t56.5 47.5t85 21.5q29 0 70 -7.5t66 -14.5l26 -7l-25 -191q-104 29 -170 29q-47 0 -80.5 -30.5t-43.5 -61.5l-11 -31v-733h-272z" />
<glyph unicode="s" horiz-adv-x="854" d="M49 131l76 107q10 -14 28.5 -35t78 -55.5t120.5 -34.5q76 0 117 38.5t41 102.5q0 57 -43 96t-104.5 65.5t-123 59.5t-104.5 97.5t-43 156.5q0 152 104.5 235t258.5 83q66 0 139.5 -17.5t114.5 -36.5l41 -18l-37 -137q-131 75 -229 75h-3q-63 0 -98 -30.5t-35 -81.5 q0 -57 46 -98t111.5 -71t131 -65t112 -99.5t46.5 -156.5q0 -150 -99.5 -242t-285.5 -92q-76 0 -140.5 15.5t-103.5 38t-66.5 46t-39.5 39.5z" />
<glyph unicode="t" horiz-adv-x="722" d="M61 866v123l101 29l131 346h139v-340h225v-158h-225v-506q0 -141 20.5 -188t75.5 -47q29 0 55.5 5t39.5 9l12 4l16 -116q-51 -49 -207 -50q-145 0 -214.5 72t-69.5 242v575h-99z" />
<glyph unicode="u" horiz-adv-x="1101" d="M115 328v696h272v-639q0 -135 33 -186.5t106 -51.5q49 0 93.5 19.5t64.5 39.5l21 19v799h272v-1024h-219l-39 90h-4q-4 -4 -10.5 -12t-30 -27.5t-53 -34t-81 -27t-110.5 -12.5q-315 0 -315 351z" />
<glyph unicode="v" horiz-adv-x="966" d="M10 1024h330l201 -729h8l229 729h178l-362 -1024h-225z" />
<glyph unicode="w" horiz-adv-x="1433" d="M12 1024h310l149 -682h6l195 682h186l215 -682h6l166 682h176l-301 -1024h-217l-184 668v2h-6l-191 -670h-217z" />
<glyph unicode="x" horiz-adv-x="968" d="M18 0l316 496l-299 528h325l170 -362l193 362h186l-284 -465l325 -559h-325l-193 383l-223 -383h-191z" />
<glyph unicode="y" horiz-adv-x="985" d="M14 1024h330l250 -729l211 729h170l-354 -1047q-96 -264 -186.5 -388t-229.5 -124q-47 0 -87 8.5t-57 15.5l-16 7l23 160q53 -23 106 -23q92 0 149.5 73t127.5 253z" />
<glyph unicode="z" horiz-adv-x="888" d="M53 0v123l469 762h-430l-6 139h748v-123l-465 -762h446l4 -139h-766z" />
<glyph unicode="{" horiz-adv-x="831" d="M195 522v150q57 0 118.5 34.5t61.5 92.5q0 51 -30 197.5t-30 220.5q0 160 98.5 237.5t352.5 77.5v-133q-217 0 -217 -176q0 -63 29.5 -221t29.5 -224q0 -125 -141 -180q141 -59 141 -182q0 -63 -29.5 -222t-29.5 -221q0 -176 217 -176v-135q-254 0 -352.5 79t-98.5 239 q0 74 30 219t30 198q0 57 -61.5 91t-118.5 34z" />
<glyph unicode="|" horiz-adv-x="700" d="M272 -512v2048h158v-2048h-158z" />
<glyph unicode="}" horiz-adv-x="831" d="M115 -203q115 0 166 44t51 132q0 61 -30 220t-30 223q0 123 142 182q-141 55 -142 180q0 66 30 223.5t30 221.5q0 88 -51.5 132t-165.5 44v133q254 0 353 -78t99 -237q0 -74 -30.5 -220.5t-30.5 -197.5q0 -57 62.5 -92t119.5 -35v-150q-57 0 -119.5 -33.5t-62.5 -91.5 q0 -53 30.5 -198.5t30.5 -218.5q0 -160 -99 -239t-353 -79v135z" />
<glyph unicode="~" horiz-adv-x="1224" d="M51 649q2 12 6 31.5t28 70t55.5 88.5t95 69.5t141.5 31.5q94 0 182 -38t143.5 -82t125 -82t133.5 -38q49 0 82.5 25t41.5 48l9 24l84 -54q-2 -12 -6.5 -31.5t-27 -70.5t-52 -90t-88 -70.5t-132.5 -31.5q-86 0 -167.5 37.5t-136 82.5t-127 83t-142.5 38q-35 0 -63.5 -10 t-46 -25.5t-30 -31t-16.5 -25.5l-4 -10z" />
<glyph unicode="&#xa1;" horiz-adv-x="681" d="M168 891q0 72 49 123q45 43 115 43q66 0 112 -43q49 -51 49.5 -123t-49.5 -121q-47 -43 -112 -43q-70 0 -115 43q-49 49 -49 121zM178 -387l88 938h137l89 -938v-125h-314v125z" />
<glyph unicode="&#xa2;" horiz-adv-x="913" d="M59 649q0 211 96.5 350.5t270.5 178.5l23 256h133l26 -248q55 -8 116.5 -26.5t94.5 -34.5l33 -15l-27 -131q-145 74 -241 74q-119 0 -174.5 -83t-55.5 -317q0 -227 57.5 -311t163.5 -84q45 0 86 14.5t67 35t45.5 42t27.5 35.5l8 14l96 -61q-2 -8 -8 -20.5t-29.5 -46 t-54.5 -61.5t-85 -53.5t-120 -33.5l-18 -225h-135l-27 231q-369 68 -369 520z" />
<glyph unicode="&#xa3;" horiz-adv-x="1087" d="M82 0v250h84q96 63 96 227q0 45 -6 94l-174 15v131h156q-20 156 -21 241q0 195 107.5 294.5t302.5 99.5q66 0 139.5 -20.5t114.5 -42.5l41 -21l-41 -133q-119 70 -195 69q-90 0 -127 -52t-37 -210q0 -133 -8 -225h420v-150h-436q-35 -209 -119 -317h663v-250h-960z" />
<glyph unicode="&#xa4;" horiz-adv-x="1118" d="M84 1032l102 137l166 -215q90 80 209 80q115 0 201 -73l170 206l100 -135l-192 -160q61 -100 61 -227q0 -125 -59 -223l190 -166l-98 -137l-168 213q-90 -78 -205 -78t-205 74l-170 -207l-100 137l195 162q-57 98 -58 225q0 121 56 219zM373 647.5q0 -110.5 51 -175 t135 -64.5q86 0 139.5 63.5t53.5 174t-53.5 174t-139.5 63.5q-84 0 -135 -62.5t-51 -173z" />
<glyph unicode="&#xa5;" horiz-adv-x="1208" d="M53 1331h318l293 -604h4l286 604h197l-326 -641h168v-129h-233l-8 -16v-119h241v-131h-241v-295h-285v295h-260v131h260v88l-25 47h-235v129h170z" />
<glyph unicode="&#xa6;" horiz-adv-x="700" d="M272 307h158v-819h-158v819zM272 717v819h158v-819h-158z" />
<glyph unicode="&#xa7;" horiz-adv-x="1034" d="M123 645q0 170 123 266q-37 55 -37 138q0 141 96 222t262 81q70 0 147 -24.5t117 -48.5l41 -24l-28 -122q-141 82 -238 81q-74 0 -108.5 -35.5t-34.5 -88.5q0 -61 52 -102.5t126 -70t147.5 -63.5t126 -106.5t52.5 -176.5q0 -160 -138 -272q35 -59 35 -137 q0 -135 -103.5 -218t-283.5 -83q-100 0 -181 29.5t-111 59.5l-29 30l53 118l27 -28q18 -17 79.5 -44.5t126.5 -27.5q168 0 168 131q0 55 -50 92t-121.5 64.5t-143.5 64.5t-122 111.5t-50 183.5zM295 709q0 -80 72.5 -129.5t197.5 -97.5t185 -93q45 53 45 127q0 70 -75 116 t-201 94t-189 95q-35 -44 -35 -112z" />
<glyph unicode="&#xa8;" horiz-adv-x="864" d="M2 1335q0 64 41 107q41 35 94 35t94 -35q41 -47 41 -107q0 -61 -41 -106q-39 -37 -94 -37t-94 37q-41 41 -41 106zM383 1335q0 64 41 107q39 35 94 35q53 0 94 -35q41 -47 41 -107q0 -61 -41 -106q-39 -37 -94 -37q-57 0 -94 37q-41 41 -41 106z" />
<glyph unicode="&#xa9;" horiz-adv-x="1492" d="M121 661.5q0 323.5 162.5 514t459.5 190.5t463 -190.5t166 -514t-165 -512t-464 -188.5q-301 0 -461.5 188.5t-160.5 512zM248 659.5q0 -276.5 130 -429t363.5 -152.5t368.5 152.5t135 429t-135 434t-369 157.5q-231 0 -362 -157.5t-131 -434zM444 653q0 168 95.5 265.5 t238.5 97.5q53 0 104.5 -17.5t74.5 -34.5l24 -18l-37 -96q-70 57 -141 57q-78 0 -118 -57t-40 -197q0 -250 160 -250q49 0 88 26t53 52l15 27l59 -59q-2 -6 -6 -16.5t-22.5 -38t-44 -48t-74 -37t-109.5 -16.5q-137 0 -228.5 96t-91.5 264z" />
<glyph unicode="&#xaa;" horiz-adv-x="845" d="M57 846q0 74 43 130t116 86t140.5 44t141.5 20v11q0 84 -30 121.5t-99 37.5q-51 0 -99.5 -21.5t-71.5 -42.5l-24 -22l-51 72q2 4 8 12.5t30.5 28.5t55.5 35.5t84 28t115 12.5q324 0 323 -281v-463h-186l-49 82q-2 -10 -10.5 -24.5t-29 -35t-63.5 -34.5t-100 -14 q-119 0 -181.5 57t-62.5 160zM295 868q0 -116 100 -116q39 0 63.5 16t31 30.5t8.5 26.5v213q-104 -12 -153.5 -51t-49.5 -119z" />
<glyph unicode="&#xab;" horiz-adv-x="1097" d="M162 512l364 381l70 -76l-182 -307l182 -309l-72 -80zM541 512l364 381l70 -76l-182 -307l182 -309l-72 -80z" />
<glyph unicode="&#xac;" horiz-adv-x="1013" d="M102 571v150h807v-485h-139v335h-668z" />
<glyph unicode="&#xad;" horiz-adv-x="733" d="M88 487v152h557v-152h-557z" />
<glyph unicode="&#xae;" horiz-adv-x="1370" d="M94 881q0 305 159 489t429 184q272 0 434 -184t162 -489q0 -307 -156.5 -491.5t-439.5 -184.5q-281 0 -434.5 184t-153.5 492zM219 879q0 -258 121 -407.5t340 -149.5t345 150.5t126 406.5q0 258 -126 411.5t-345 153.5q-217 0 -339 -155.5t-122 -409.5zM481 561v635h201 q256 0 256 -197q0 -125 -115 -180l115 -260h-160l-98 234h-55v-232h-144zM625 872h61q90 0 90 125q0 115 -92 115h-59v-240z" />
<glyph unicode="&#xaf;" horiz-adv-x="876" d="M221 1278v119h438v-119h-438z" />
<glyph unicode="&#xb0;" horiz-adv-x="862" d="M74 1155q0 186 95 299t261 113q164 0 261 -114t97 -298q0 -188 -94 -303t-264 -115q-174 0 -265 114t-91 304zM299 1159q0 -154 30.5 -223.5t98.5 -69.5q137 0 137 293q0 152 -32.5 216.5t-102.5 64.5t-100.5 -64.5t-30.5 -216.5z" />
<glyph unicode="&#xb1;" d="M63 264v152h949v-152h-949zM137 999v152h334v377h145v-377h328v-152h-328v-378h-145v378h-334z" />
<glyph unicode="&#xb2;" horiz-adv-x="847" d="M84 471v195q133 51 267 209.5t134 336.5q0 119 -34.5 165t-112.5 46q-33 0 -83 -20.5t-83 -40.5l-33 -21l-28 119q14 10 41.5 26.5t104.5 43t149 26.5q170 0 260 -91t90 -234q0 -266 -377 -526h385v-234h-680z" />
<glyph unicode="&#xb3;" horiz-adv-x="845" d="M74 569l59 111q10 -10 28.5 -26.5t76 -44t114.5 -27.5q158 0 158 198q0 102 -21.5 144.5t-66.5 42.5q-31 0 -62 -31l-18 -23l-76 88l246 299h-365l15 236h565v-158l-246 -295q117 -4 200 -87t83 -222q0 -162 -109.5 -243.5t-263.5 -81.5q-61 0 -116.5 12t-91.5 29.5 t-61.5 36t-36.5 30.5z" />
<glyph unicode="&#xb4;" horiz-adv-x="495" d="M125 1184l143 311l221 -63l-247 -267z" />
<glyph unicode="&#xb5;" horiz-adv-x="1110" d="M125 -512v1536h272v-639q0 -135 33 -186.5t107 -51.5q49 0 93 19.5t64 39.5l21 19v799h272v-1024h-219l-39 90h-4q-4 -4 -10 -12t-29.5 -27.5t-53.5 -34t-81 -27t-111 -12.5q-25 0 -61 5q25 -328 27 -494h-281z" />
<glyph unicode="&#xb6;" horiz-adv-x="1310" d="M74 909q0 211 120.5 316.5t395.5 105.5h647v-180h-129v-1151h-207v1151h-164v-1151h-200v475q-463 0 -463 434z" />
<glyph unicode="&#xb7;" horiz-adv-x="608" d="M139 745q0 70 49 123q45 43 115 43q66 0 113 -43q49 -53 49 -123q0 -72 -49 -120q-47 -43 -113 -43q-70 0 -115 43q-49 49 -49 120z" />
<glyph unicode="&#xb8;" horiz-adv-x="509" d="M51 -420l53 60q41 -59 113 -60q102 0 102 117q0 43 -30.5 66.5t-61.5 29.5l-30 6l24 199h90l-12 -117q0 -2 45 -16.5t91 -58.5t46 -113q0 -94 -60.5 -150.5t-172.5 -56.5q-68 0 -117 23.5t-64 47.5z" />
<glyph unicode="&#xb9;" horiz-adv-x="845" d="M125 1370l258 166h199v-1065h-246v866l-154 -106z" />
<glyph unicode="&#xba;" horiz-adv-x="899" d="M59 1013.5q0 182.5 99.5 284t290.5 101.5q193 0 291 -101.5t98 -283.5q0 -180 -101.5 -282.5t-287.5 -102.5q-193 0 -291.5 101t-98.5 283.5zM317 1016q0 -150 31 -217.5t101 -67.5q72 0 101.5 66.5t29.5 216.5q0 147 -29.5 212.5t-101.5 65.5q-70 0 -101 -65.5 t-31 -210.5z" />
<glyph unicode="&#xbb;" horiz-adv-x="1097" d="M121 195l184 307l-182 311l74 80l358 -391l-360 -381zM500 195l184 307l-182 311l73 80l359 -391l-361 -381z" />
<glyph unicode="&#xbc;" horiz-adv-x="1648" d="M125 1370l258 166h199v-1065h-246v866l-154 -106zM451 -18l692 1239l110 -62l-690 -1241zM834 -139q122 248 192 721l240 -29q-66 -334 -273 -674h232v80l69 432h187v-512h86v-106l-86 -25v-260h-256v258h-379z" />
<glyph unicode="&#xbd;" horiz-adv-x="1726" d="M125 1370l258 166h199v-1065h-246v866l-154 -106zM451 -18l692 1239l110 -62l-690 -1241zM975 -319q133 51 267 210.5t134 337.5q0 119 -34.5 165t-114.5 46q-33 0 -83 -20.5t-83 -40.5l-33 -21l-29 117q16 10 43 26.5t105 43t149 26.5q170 0 259.5 -91t89.5 -234 q0 -266 -375 -525h383v-233h-678v193z" />
<glyph unicode="&#xbe;" horiz-adv-x="1734" d="M80 569l59 111q10 -10 28.5 -26.5t76 -44t114.5 -27.5q158 0 158 198q0 102 -21.5 144.5t-66.5 42.5q-31 0 -61 -31l-19 -23l-76 88l246 299h-364l14 236h565v-158l-246 -295q117 -4 200 -87t83 -222q0 -162 -109.5 -243.5t-263.5 -81.5q-61 0 -116.5 12t-91 29.5 t-61.5 36t-37 30.5zM537 -18l692 1239l110 -62l-690 -1241zM920 -139q122 248 192 721l240 -29q-66 -334 -273 -674h232v80l69 432h187v-512h86v-106l-86 -25v-260h-256v258h-379z" />
<glyph unicode="&#xbf;" horiz-adv-x="911" d="M47 -172q0 115 47 195.5t113.5 127t133.5 86t114 101t47 145.5q0 14 -4 52l112 8q20 -80 21 -137q0 -68 -29 -117t-68.5 -83t-79.5 -72t-69 -105.5t-29 -161.5q0 -141 40 -201.5t141 -60.5q47 0 94 13t71 28l25 14l57 -125q-10 -8 -29.5 -19.5t-91 -31t-155.5 -19.5 q-236 0 -348.5 106.5t-112.5 256.5zM383 891q0 72 49 123q47 43 114.5 43t112.5 -43q49 -51 49.5 -123t-49.5 -121q-45 -43 -112.5 -43t-114.5 43q-49 49 -49 121z" />
<glyph unicode="&#xc0;" horiz-adv-x="1245" d="M39 0l442 1331h314l413 -1331h-299l-114 373h-463l-121 -373h-172zM342 1716l217 72l174 -301l-127 -35zM373 502h383l-183 626h-4z" />
<glyph unicode="&#xc1;" horiz-adv-x="1245" d="M39 0l442 1331h314l413 -1331h-299l-114 373h-463l-121 -373h-172zM373 502h383l-183 626h-4zM537 1460l143 312l221 -64l-248 -266z" />
<glyph unicode="&#xc2;" horiz-adv-x="1245" d="M39 0l442 1331h314l413 -1331h-299l-114 373h-463l-121 -373h-172zM352 1569l201 250h143l199 -250l-57 -92l-213 174l-213 -174zM373 502h383l-183 626h-4z" />
<glyph unicode="&#xc3;" horiz-adv-x="1245" d="M39 0l442 1331h314l413 -1331h-299l-114 373h-463l-121 -373h-172zM264 1567q4 8 10.5 20t29 44t48 56.5t70.5 44t94 19.5q80 0 172 -48t139 -48q33 0 58.5 16.5t35.5 32.5l9 16l74 -71q-2 -6 -7.5 -17.5t-24 -39t-42 -49t-65.5 -39t-91 -17.5q-70 0 -166 49t-151 49 q-33 0 -62.5 -22.5t-43.5 -45.5l-13 -24zM373 502h383l-183 626h-4z" />
<glyph unicode="&#xc4;" horiz-adv-x="1245" d="M39 0l442 1331h314l413 -1331h-299l-114 373h-463l-121 -373h-172zM299 1612q0 63 41 106q41 35 94 35t94 -35q41 -47 41 -106q0 -61 -41 -107q-39 -37 -94 -37t-94 37q-41 41 -41 107zM373 502h383l-183 626h-4zM680 1612q0 63 41 106q39 35 94 35q53 0 94 -35 q41 -47 41 -106q0 -61 -41 -107q-41 -37 -94 -37q-57 0 -94 37q-41 41 -41 107z" />
<glyph unicode="&#xc5;" horiz-adv-x="1245" d="M39 0l442 1331h314l413 -1331h-299l-114 373h-463l-121 -373h-172zM373 502h383l-183 626h-4zM410 1620q0 102 60 160.5t155 58.5q92 0 153.5 -59.5t61.5 -159.5q0 -102 -59.5 -161.5t-155.5 -59.5q-98 0 -156.5 58.5t-58.5 162.5zM504 1622q0 -68 32.5 -101.5t88 -33.5 t88 33.5t32.5 101.5q0 63 -33.5 97t-87 34t-87 -33.5t-33.5 -97.5z" />
<glyph unicode="&#xc6;" horiz-adv-x="1683" d="M-29 0l742 1331h872v-147h-514v-439h455v-143h-455v-455h543v-147h-826v385h-430l-208 -385h-179zM428 516h360v668h-14z" />
<glyph unicode="&#xc7;" horiz-adv-x="1179" d="M74 655q0 319 160.5 508t445.5 189q94 0 196.5 -27t157.5 -52l56 -26l-29 -149q-195 100 -346 100q-172 0 -251 -121t-79 -411q0 -289 84 -412t260 -123q61 0 118.5 19.5t96.5 47t68.5 56.5t43.5 48l13 20l90 -99q-6 -10 -16 -26.5t-50 -58.5t-89.5 -74.5t-133.5 -59.5 t-178 -27l-10 -96q0 -2 46 -16.5t91 -58.5t45 -113q0 -94 -60.5 -150.5t-172.5 -56.5q-68 0 -117 23.5t-64 47.5l-16 23l53 60q41 -59 113 -60q102 0 102 117q0 43 -30.5 66.5t-61.5 29.5l-30 6l22 183q-258 27 -393 203.5t-135 469.5z" />
<glyph unicode="&#xc8;" d="M158 0v1331h798v-147h-516v-439h455v-143h-455v-455h545v-147h-827zM307 1716l217 72l174 -301l-127 -35z" />
<glyph unicode="&#xc9;" d="M158 0v1331h798v-147h-516v-439h455v-143h-455v-455h545v-147h-827zM500 1460l143 312l221 -64l-248 -266z" />
<glyph unicode="&#xca;" d="M158 0v1331h798v-147h-516v-439h455v-143h-455v-455h545v-147h-827zM319 1569l201 250h144l198 -250l-57 -92l-213 174l-213 -174z" />
<glyph unicode="&#xcb;" d="M158 0v1331h798v-147h-516v-439h455v-143h-455v-455h545v-147h-827zM233 1612q0 63 41 106q41 35 94.5 35t94.5 -35q41 -47 41 -106q0 -61 -41 -107q-39 -37 -94.5 -37t-94.5 37q-41 41 -41 107zM614 1612q0 63 41 106q39 35 95 35q53 0 94 -35q41 -47 41 -106 q0 -61 -41 -107q-41 -37 -94 -37q-57 0 -95 37q-41 41 -41 107z" />
<glyph unicode="&#xcc;" horiz-adv-x="600" d="M8 1716l217 72l174 -301l-127 -35zM158 0v1331h282v-1331h-282z" />
<glyph unicode="&#xcd;" horiz-adv-x="600" d="M158 0v1331h282v-1331h-282zM205 1460l143 312l221 -64l-247 -266z" />
<glyph unicode="&#xce;" horiz-adv-x="600" d="M25 1569l200 250h144l198 -250l-57 -92l-213 174l-213 -174zM158 0v1331h282v-1331h-282z" />
<glyph unicode="&#xcf;" horiz-adv-x="600" d="M-33 1612q0 63 41 106q41 35 94.5 35t94.5 -35q41 -47 41 -106q0 -61 -41 -107q-39 -37 -95 -37q-53 0 -94 37q-41 41 -41 107zM158 0v1331h282v-1331h-282zM348 1612q0 63 41 106q39 35 94 35q53 0 95 -35q41 -47 40 -106q0 -61 -40 -107q-41 -37 -95 -37q-57 0 -94 37 q-41 41 -41 107z" />
<glyph unicode="&#xd0;" horiz-adv-x="1347" d="M43 592v135h115v604h452q309 0 476 -171t167 -498q0 -324 -163.5 -493t-477.5 -169h-454v592h-115zM440 145h174q176 0 251 116t75 401q0 287 -76 405.5t-254 118.5h-170v-459h291v-135h-291v-447z" />
<glyph unicode="&#xd1;" horiz-adv-x="1333" d="M158 0v1331h293l559 -903h4l-15 92v811h177v-1331h-222l-632 999h-5l17 -118v-881h-176zM334 1567l10 20q6 12 28.5 44t48 56.5t71 44t94.5 19.5q80 0 172 -48t139 -48q33 0 58.5 16.5t34.5 32.5l9 16l74 -71q-2 -6 -7 -17.5t-23.5 -39t-42 -49t-65.5 -39t-91 -17.5 q-70 0 -166 49t-152 49q-33 0 -62.5 -22.5t-42.5 -45.5l-13 -24z" />
<glyph unicode="&#xd2;" horiz-adv-x="1357" d="M74 663.5q0 319.5 156.5 504t445.5 184.5q291 0 449.5 -185.5t158.5 -503t-158.5 -502t-449.5 -184.5q-289 0 -445.5 183.5t-156.5 503zM385 664q0 -285 67.5 -413t223.5 -128q158 0 226.5 128t68.5 413q0 283 -70 411.5t-225 128.5q-154 0 -222.5 -129t-68.5 -411z M387 1716l217 72l174 -301l-127 -35z" />
<glyph unicode="&#xd3;" horiz-adv-x="1357" d="M74 663.5q0 319.5 156.5 504t445.5 184.5q291 0 449.5 -185.5t158.5 -503t-158.5 -502t-449.5 -184.5q-289 0 -445.5 183.5t-156.5 503zM385 664q0 -285 67.5 -413t223.5 -128q158 0 226.5 128t68.5 413q0 283 -70 411.5t-225 128.5q-154 0 -222.5 -129t-68.5 -411z M582 1460l143 312l221 -64l-248 -266z" />
<glyph unicode="&#xd4;" horiz-adv-x="1357" d="M74 663.5q0 319.5 156.5 504t445.5 184.5q291 0 449.5 -185.5t158.5 -503t-158.5 -502t-449.5 -184.5q-289 0 -445.5 183.5t-156.5 503zM385 664q0 -285 67.5 -413t223.5 -128q158 0 226.5 128t68.5 413q0 283 -70 411.5t-225 128.5q-154 0 -222.5 -129t-68.5 -411z M403 1569l201 250h144l198 -250l-57 -92l-213 174l-213 -174z" />
<glyph unicode="&#xd5;" horiz-adv-x="1357" d="M74 663.5q0 319.5 156.5 504t445.5 184.5q291 0 449.5 -185.5t158.5 -503t-158.5 -502t-449.5 -184.5q-289 0 -445.5 183.5t-156.5 503zM311 1567q4 8 10.5 20t29 44t48 56.5t70.5 44t94 19.5q80 0 172 -48t139 -48q33 0 58.5 16.5t35.5 32.5l9 16l74 -71 q-2 -6 -7.5 -17.5t-24 -39t-42 -49t-65.5 -39t-91 -17.5q-70 0 -166 49t-151 49q-33 0 -62.5 -22.5t-43.5 -45.5l-13 -24zM385 664q0 -285 67.5 -413t223.5 -128q158 0 226.5 128t68.5 413q0 283 -70 411.5t-225 128.5q-154 0 -222.5 -129t-68.5 -411z" />
<glyph unicode="&#xd6;" horiz-adv-x="1357" d="M74 663.5q0 319.5 156.5 504t445.5 184.5q291 0 449.5 -185.5t158.5 -503t-158.5 -502t-449.5 -184.5q-289 0 -445.5 183.5t-156.5 503zM344 1612q0 63 41 106q41 35 94 35t94 -35q41 -47 41 -106q0 -61 -41 -107q-41 -37 -94 -37t-94 37q-41 41 -41 107zM385 664 q0 -285 67.5 -413t223.5 -128q158 0 226.5 128t68.5 413q0 283 -70 411.5t-225 128.5q-154 0 -222.5 -129t-68.5 -411zM725 1612q0 63 41 106q39 35 94 35q53 0 94 -35q41 -47 41 -106q0 -61 -41 -107q-41 -37 -94 -37q-57 0 -94 37q-41 41 -41 107z" />
<glyph unicode="&#xd7;" horiz-adv-x="866" d="M94 391l238 262l-238 265l96 118l244 -270l244 270l96 -118l-237 -265l237 -262l-98 -119l-242 267l-239 -267z" />
<glyph unicode="&#xd8;" horiz-adv-x="1357" d="M74 664q0 319 156.5 503.5t445.5 184.5q133 0 250 -45l75 180l86 -23l-83 -196q280 -170 280 -604q0 -317 -158.5 -502t-449.5 -185q-111 0 -207 29l-96 -225l-84 22l98 236q-313 158 -313 625zM385 664q0 -315 82 -439l387 914q-70 66 -178 65q-154 0 -222.5 -128.5 t-68.5 -411.5zM532 158q55 -35 144 -35q158 0 226.5 128t68.5 413q0 260 -60 387z" />
<glyph unicode="&#xd9;" horiz-adv-x="1257" d="M139 483v848h285v-784q0 -221 60.5 -317.5t189.5 -96.5q137 0 202.5 100.5t65.5 313.5v784h174v-848q0 -506 -487 -506q-242 0 -366 133.5t-124 372.5zM424 1716l217 72l174 -301l-127 -35z" />
<glyph unicode="&#xda;" horiz-adv-x="1257" d="M139 483v848h285v-784q0 -221 60.5 -317.5t189.5 -96.5q137 0 202.5 100.5t65.5 313.5v784h174v-848q0 -506 -487 -506q-242 0 -366 133.5t-124 372.5zM557 1460l143 312l222 -64l-248 -266z" />
<glyph unicode="&#xdb;" horiz-adv-x="1257" d="M139 483v848h285v-784q0 -221 60.5 -317.5t189.5 -96.5q137 0 202.5 100.5t65.5 313.5v784h174v-848q0 -506 -487 -506q-242 0 -366 133.5t-124 372.5zM406 1569l200 250h144l198 -250l-57 -92l-213 174l-213 -174z" />
<glyph unicode="&#xdc;" horiz-adv-x="1257" d="M139 483v848h285v-784q0 -221 60.5 -317.5t189.5 -96.5q137 0 202.5 100.5t65.5 313.5v784h174v-848q0 -506 -487 -506q-242 0 -366 133.5t-124 372.5zM346 1612q0 63 41 106q41 35 94.5 35t93.5 -35q41 -47 41 -106q0 -61 -41 -107q-39 -37 -94 -37t-94 37 q-41 41 -41 107zM727 1612q0 63 41 106q39 35 94 35q53 0 94 -35q41 -47 41 -106q0 -61 -41 -107q-39 -37 -94 -37q-57 0 -94 37q-41 41 -41 107z" />
<glyph unicode="&#xdd;" horiz-adv-x="1071" d="M-14 1331h317l293 -604h4l287 604h196l-399 -786v-545h-285v514zM487 1460l144 312l221 -64l-248 -266z" />
<glyph unicode="&#xde;" horiz-adv-x="1150" d="M201 0v1331h282v-184h125q227 0 353 -116t126 -349q0 -129 -43 -227.5t-114.5 -153.5t-151.5 -83t-164 -28h-131v-190h-282zM483 328h111q104 0 153.5 71.5t49.5 270.5q0 190 -50.5 263t-152.5 73h-111v-678z" />
<glyph unicode="&#xdf;" horiz-adv-x="1148" d="M123 0v1073q0 483 442 483q184 0 290 -80.5t106 -222.5q0 -184 -193 -276q322 -90 322 -492q0 -508 -414 -508q-72 0 -125 11.5t-71 22.5l-17 12l31 129q41 -29 118 -29q88 0 136.5 80t48.5 280q0 233 -57.5 313.5t-215.5 80.5v147q6 0 17.5 3t39 16.5t49 33t39 60.5 t17.5 92q0 100 -32.5 145t-104.5 45q-84 0 -119 -76.5t-35 -269.5v-1073h-272z" />
<glyph unicode="&#xe0;" horiz-adv-x="1050" d="M55 246q0 96 54.5 166.5t147.5 109.5t178 57.5t183 26.5v60q0 139 -38.5 191t-130.5 52q-43 0 -103.5 -18.5t-100.5 -37.5l-40 -19l-27 131q158 82 318 82q193 0 294 -81t101 -278v-465q0 -109 43 -108l70 14l8 -106q-141 -45 -228 -46q-59 0 -92 30t-43 97h-10 q-2 -6 -7 -14t-26.5 -29.5t-49.5 -39t-77 -31t-108 -13.5q-143 0 -229.5 72t-86.5 197zM236 1440l217 71l174 -301l-127 -34zM340 281q0 -82 33 -124t88 -42q49 0 89 28.5t54 56.5l14 27v271q-137 -14 -207.5 -64.5t-70.5 -152.5z" />
<glyph unicode="&#xe1;" horiz-adv-x="1050" d="M55 246q0 96 54.5 166.5t147.5 109.5t178 57.5t183 26.5v60q0 139 -38.5 191t-130.5 52q-43 0 -103.5 -18.5t-100.5 -37.5l-40 -19l-27 131q158 82 318 82q193 0 294 -81t101 -278v-465q0 -109 43 -108l70 14l8 -106q-141 -45 -228 -46q-59 0 -92 30t-43 97h-10 q-2 -6 -7 -14t-26.5 -29.5t-49.5 -39t-77 -31t-108 -13.5q-143 0 -229.5 72t-86.5 197zM340 281q0 -82 33 -124t88 -42q49 0 89 28.5t54 56.5l14 27v271q-137 -14 -207.5 -64.5t-70.5 -152.5zM430 1184l143 311l222 -63l-248 -267z" />
<glyph unicode="&#xe2;" horiz-adv-x="1050" d="M55 246q0 96 54.5 166.5t147.5 109.5t178 57.5t183 26.5v60q0 139 -38.5 191t-130.5 52q-43 0 -103.5 -18.5t-100.5 -37.5l-40 -19l-27 131q158 82 318 82q193 0 294 -81t101 -278v-465q0 -109 43 -108l70 14l8 -106q-141 -45 -228 -46q-59 0 -92 30t-43 97h-10 q-2 -6 -7 -14t-26.5 -29.5t-49.5 -39t-77 -31t-108 -13.5q-143 0 -229.5 72t-86.5 197zM250 1292l201 250h143l199 -250l-58 -92l-213 174l-213 -174zM340 281q0 -82 33 -124t88 -42q49 0 89 28.5t54 56.5l14 27v271q-137 -14 -207.5 -64.5t-70.5 -152.5z" />
<glyph unicode="&#xe3;" horiz-adv-x="1050" d="M55 246q0 96 54.5 166.5t147.5 109.5t178 57.5t183 26.5v60q0 139 -38.5 191t-130.5 52q-43 0 -103.5 -18.5t-100.5 -37.5l-40 -19l-27 131q158 82 318 82q193 0 294 -81t101 -278v-465q0 -109 43 -108l70 14l8 -106q-141 -45 -228 -46q-59 0 -92 30t-43 97h-10 q-2 -6 -7 -14t-26.5 -29.5t-49.5 -39t-77 -31t-108 -13.5q-143 0 -229.5 72t-86.5 197zM160 1290q4 8 10 20.5t28.5 44t48 56.5t70.5 44.5t95 19.5q80 0 172 -48.5t139 -48.5q33 0 58.5 16.5t34.5 32.5l9 17l74 -72q-2 -6 -7 -17.5t-23.5 -39t-42 -49t-65.5 -39t-91 -17.5 q-70 0 -166 49.5t-152 49.5q-33 0 -62.5 -23.5t-42.5 -46.5l-14 -22zM340 281q0 -82 33 -124t88 -42q49 0 89 28.5t54 56.5l14 27v271q-137 -14 -207.5 -64.5t-70.5 -152.5z" />
<glyph unicode="&#xe4;" horiz-adv-x="1050" d="M55 246q0 96 54.5 166.5t147.5 109.5t178 57.5t183 26.5v60q0 139 -38.5 191t-130.5 52q-43 0 -103.5 -18.5t-100.5 -37.5l-40 -19l-27 131q158 82 318 82q193 0 294 -81t101 -278v-465q0 -109 43 -108l70 14l8 -106q-141 -45 -228 -46q-59 0 -92 30t-43 97h-10 q-2 -6 -7 -14t-26.5 -29.5t-49.5 -39t-77 -31t-108 -13.5q-143 0 -229.5 72t-86.5 197zM190 1335q0 64 41 107q41 35 94.5 35t94.5 -35q41 -47 41 -107q0 -61 -41 -106q-39 -37 -94.5 -37t-94.5 37q-41 41 -41 106zM340 281q0 -82 33 -124t88 -42q49 0 89 28.5t54 56.5 l14 27v271q-137 -14 -207.5 -64.5t-70.5 -152.5zM571 1335q0 64 41 107q39 35 95 35q53 0 94 -35q41 -47 41 -107q0 -61 -41 -106q-39 -37 -94 -37q-57 0 -95 37q-41 41 -41 106z" />
<glyph unicode="&#xe5;" horiz-adv-x="1050" d="M55 246q0 96 54.5 166.5t147.5 109.5t178 57.5t183 26.5v60q0 139 -38.5 191t-130.5 52q-43 0 -103.5 -18.5t-100.5 -37.5l-40 -19l-27 131q158 82 318 82q193 0 294 -81t101 -278v-465q0 -109 43 -108l70 14l8 -106q-141 -45 -228 -46q-59 0 -92 30t-43 97h-10 q-2 -6 -7 -14t-26.5 -29.5t-49.5 -39t-77 -31t-108 -13.5q-143 0 -229.5 72t-86.5 197zM307 1343q0 102 60.5 161t154.5 59q92 0 153.5 -60t61.5 -160q0 -102 -59.5 -161.5t-155.5 -59.5q-98 0 -156.5 58.5t-58.5 162.5zM340 281q0 -82 33 -124t88 -42q49 0 89 28.5t54 56.5 l14 27v271q-137 -14 -207.5 -64.5t-70.5 -152.5zM401 1346q0 -68 33 -102t88.5 -34t88 34t32.5 102q0 63 -34 97t-87 34t-87 -34t-34 -97z" />
<glyph unicode="&#xe6;" horiz-adv-x="1531" d="M57 254q0 96 54.5 168t146.5 110.5t177 57t183 26.5v39q0 154 -34.5 204t-124.5 50q-43 0 -103.5 -18.5t-100.5 -37.5l-40 -19l-27 131q156 82 318 82q197 0 266 -111q119 109 299 108q190 0 296 -119.5t106 -342.5q0 -37 -4.5 -69t-8.5 -46l-4 -14h-551 q2 -184 54.5 -261t168.5 -77q70 0 129.5 33.5t83.5 67.5l25 34l92 -72q-4 -8 -12 -21.5t-39 -48t-69 -61.5t-103.5 -48.5t-138.5 -21.5q-293 0 -408 197q-82 -197 -317 -197q-141 0 -227.5 76t-86.5 201zM340 289q0 -82 33 -128t88 -46q143 0 162 260q-6 55 -7 119v14 q-135 -14 -205.5 -65.5t-70.5 -153.5zM905 586h314v47q0 156 -33 218t-115 62q-84 0 -121 -69.5t-45 -257.5z" />
<glyph unicode="&#xe7;" horiz-adv-x="913" d="M59 506q0 250 131.5 395.5t362.5 145.5q63 0 138 -19.5t118 -40.5l43 -20l-27 -131q-145 74 -241 73q-119 0 -174.5 -83t-55.5 -316q0 -227 57.5 -311t163.5 -84q45 0 86 14t67 34.5t45.5 42t27.5 36.5l8 14l96 -61q-4 -8 -10 -22.5t-33.5 -51.5t-63.5 -65.5t-100.5 -52 t-142.5 -26.5l-10 -96q0 -2 45 -16.5t91 -58.5t46 -113q0 -94 -60.5 -150.5t-172.5 -56.5q-68 0 -117 23.5t-65 47.5l-15 23l53 60q41 -59 113 -60q102 0 102 117q0 43 -30.5 66.5t-61.5 29.5l-31 6l23 183q-197 23 -301.5 155.5t-104.5 368.5z" />
<glyph unicode="&#xe8;" horiz-adv-x="970" d="M59 494q0 266 123 408t332 142q190 0 295.5 -119.5t105.5 -342.5q0 -37 -4 -69t-8 -46l-4 -14h-551q2 -184 54.5 -261t168.5 -77q70 0 129.5 33.5t83.5 67.5l25 34l92 -72q-4 -8 -12 -21.5t-39 -48t-69 -61.5t-103.5 -48.5t-138.5 -21.5q-227 0 -353.5 126t-126.5 391z M225 1440l217 71l174 -301l-127 -34zM348 586h314v47q0 156 -33 218t-115 62q-84 0 -121 -69.5t-45 -257.5z" />
<glyph unicode="&#xe9;" horiz-adv-x="970" d="M59 494q0 266 123 408t332 142q190 0 295.5 -119.5t105.5 -342.5q0 -37 -4 -69t-8 -46l-4 -14h-551q2 -184 54.5 -261t168.5 -77q70 0 129.5 33.5t83.5 67.5l25 34l92 -72q-4 -8 -12 -21.5t-39 -48t-69 -61.5t-103.5 -48.5t-138.5 -21.5q-227 0 -353.5 126t-126.5 391z M348 586h314v47q0 156 -33 218t-115 62q-84 0 -121 -69.5t-45 -257.5zM420 1184l143 311l221 -63l-247 -267z" />
<glyph unicode="&#xea;" horiz-adv-x="970" d="M59 494q0 266 123 408t332 142q190 0 295.5 -119.5t105.5 -342.5q0 -37 -4 -69t-8 -46l-4 -14h-551q2 -184 54.5 -261t168.5 -77q70 0 129.5 33.5t83.5 67.5l25 34l92 -72q-4 -8 -12 -21.5t-39 -48t-69 -61.5t-103.5 -48.5t-138.5 -21.5q-227 0 -353.5 126t-126.5 391z M242 1292l200 250h144l198 -250l-57 -92l-213 174l-213 -174zM348 586h314v47q0 156 -33 218t-115 62q-84 0 -121 -69.5t-45 -257.5z" />
<glyph unicode="&#xeb;" horiz-adv-x="970" d="M59 494q0 266 123 408t332 142q190 0 295.5 -119.5t105.5 -342.5q0 -37 -4 -69t-8 -46l-4 -14h-551q2 -184 54.5 -261t168.5 -77q70 0 129.5 33.5t83.5 67.5l25 34l92 -72q-4 -8 -12 -21.5t-39 -48t-69 -61.5t-103.5 -48.5t-138.5 -21.5q-227 0 -353.5 126t-126.5 391z M182 1335q0 64 41 107q41 35 94.5 35t94.5 -35q41 -47 41 -107q0 -61 -41 -106q-39 -37 -94.5 -37t-94.5 37q-41 41 -41 106zM348 586h314v47q0 156 -33 218t-115 62q-84 0 -121 -69.5t-45 -257.5zM563 1335q0 64 41 107q39 35 94 35q53 0 95 -35q41 -47 41 -107 q0 -61 -41 -106q-39 -37 -95 -37q-57 0 -94 37q-41 41 -41 106z" />
<glyph unicode="&#xec;" horiz-adv-x="518" d="M-35 1440l217 71l174 -301l-127 -34zM123 0v1024h272v-1024h-272z" />
<glyph unicode="&#xed;" horiz-adv-x="518" d="M123 0v1024h272v-1024h-272zM160 1184l143 311l221 -63l-248 -267z" />
<glyph unicode="&#xee;" horiz-adv-x="518" d="M-10 1292l200 250h144l198 -250l-57 -92l-213 174l-213 -174zM123 0v1024h272v-1024h-272z" />
<glyph unicode="&#xef;" horiz-adv-x="518" d="M-70 1335q0 64 41 107q41 35 94.5 35t94.5 -35q41 -47 41 -107q0 -61 -41 -106q-41 -37 -94 -37q-55 0 -95 37q-41 41 -41 106zM123 0v1024h272v-1024h-272zM311 1335q0 64 41 107q39 35 94 35q53 0 95 -35q41 -47 41 -107q0 -61 -41 -106q-39 -37 -95 -37q-57 0 -94 37 q-41 41 -41 106z" />
<glyph unicode="&#xf0;" horiz-adv-x="1089" d="M61 512q0 254 118 393t329 139q119 0 221 -67q-41 178 -133 299l-186 -105l-37 86l162 93q-59 59 -125 102l122 76q86 -43 148 -96l162 92l39 -86l-131 -74q127 -143 196.5 -352t69.5 -455q0 -287 -122 -433.5t-355 -146.5q-223 0 -350.5 140.5t-127.5 394.5zM352 512 q0 -223 41 -313t146 -90q102 0 142 90t40 315q0 217 -40 307t-142 90q-104 0 -145.5 -89t-41.5 -310z" />
<glyph unicode="&#xf1;" horiz-adv-x="1101" d="M123 0v1024h219l35 -84h8q8 12 27.5 29.5t93.5 46t168 28.5q315 0 315 -350v-694h-272v639q0 137 -30 186t-107 49q-53 0 -99.5 -18t-65.5 -37l-20 -18v-801h-272zM164 1290q4 8 10 20.5t28.5 44t48 56.5t71 44.5t94.5 19.5q80 0 172 -48.5t139 -48.5q33 0 58.5 16.5 t34.5 32.5l9 17l74 -72q-2 -6 -7 -17.5t-23.5 -39t-42 -49t-65.5 -39t-91 -17.5q-70 0 -166 49.5t-152 49.5q-33 0 -62.5 -23.5t-42.5 -46.5l-13 -22z" />
<glyph unicode="&#xf2;" horiz-adv-x="1075" d="M59 512q0 256 124 395.5t354 139.5q231 0 355 -139.5t124 -395.5q0 -254 -128 -394.5t-351 -140.5q-229 0 -353.5 139.5t-124.5 395.5zM223 1440l217 71l174 -301l-127 -34zM352 514q0 -223 41 -312t143.5 -89t143.5 89t41 310t-41 309t-143.5 88t-143.5 -88t-41 -307z " />
<glyph unicode="&#xf3;" horiz-adv-x="1075" d="M59 512q0 256 124 395.5t354 139.5q231 0 355 -139.5t124 -395.5q0 -254 -128 -394.5t-351 -140.5q-229 0 -353.5 139.5t-124.5 395.5zM352 514q0 -223 41 -312t143.5 -89t143.5 89t41 310t-41 309t-143.5 88t-143.5 -88t-41 -307zM418 1184l143 311l221 -63l-247 -267z " />
<glyph unicode="&#xf4;" horiz-adv-x="1075" d="M59 512q0 256 124 395.5t354 139.5q231 0 355 -139.5t124 -395.5q0 -254 -128 -394.5t-351 -140.5q-229 0 -353.5 139.5t-124.5 395.5zM238 1292l200 250h144l198 -250l-57 -92l-213 174l-213 -174zM352 514q0 -223 41 -312t143.5 -89t143.5 89t41 310t-41 309t-143.5 88 t-143.5 -88t-41 -307z" />
<glyph unicode="&#xf5;" horiz-adv-x="1075" d="M59 512q0 256 124 395.5t354 139.5q231 0 355 -139.5t124 -395.5q0 -254 -128 -394.5t-351 -140.5q-229 0 -353.5 139.5t-124.5 395.5zM145 1290q4 8 10.5 20.5t29 44t48 56.5t70.5 44.5t94 19.5q80 0 172.5 -48.5t139.5 -48.5q33 0 58.5 16.5t34.5 32.5l9 17l74 -72 q-2 -6 -7.5 -17.5t-23.5 -39t-42 -49t-65.5 -39t-91.5 -17.5q-70 0 -166 49.5t-151 49.5q-33 0 -62.5 -23.5t-43.5 -46.5l-13 -22zM352 514q0 -223 41 -312t143.5 -89t143.5 89t41 310t-41 309t-143.5 88t-143.5 -88t-41 -307z" />
<glyph unicode="&#xf6;" horiz-adv-x="1075" d="M59 512q0 256 124 395.5t354 139.5q231 0 355 -139.5t124 -395.5q0 -254 -128 -394.5t-351 -140.5q-229 0 -353.5 139.5t-124.5 395.5zM180 1335q0 64 41 107q41 35 94.5 35t94.5 -35q41 -47 41 -107q0 -61 -41 -106q-39 -37 -95 -37q-53 0 -94 37q-41 41 -41 106z M352 514q0 -223 41 -312t143.5 -89t143.5 89t41 310t-41 309t-143.5 88t-143.5 -88t-41 -307zM561 1335q0 64 41 107q39 35 94 35q53 0 95 -35q41 -47 40 -107q0 -61 -40 -106q-41 -37 -95 -37q-57 0 -94 37q-41 41 -41 106z" />
<glyph unicode="&#xf7;" d="M63 467v151h949v-151h-949zM373 156q0 70 49 123q45 43 115 43q66 0 112 -43q49 -53 49 -123q0 -72 -49 -121q-47 -43 -112 -43q-70 0 -115 43q-49 49 -49 121zM375 930q0 70 49 123q47 43 114.5 43t112.5 -43q49 -53 49 -123q0 -72 -49 -121q-45 -43 -112.5 -43 t-114.5 43q-49 49 -49 121z" />
<glyph unicode="&#xf8;" horiz-adv-x="1083" d="M59 512q0 256 124 395.5t354 139.5q74 0 145 -17l117 301l119 -22l-127 -324q225 -125 225 -473q0 -254 -128 -394.5t-351 -140.5q-61 0 -134 15l-141 -367l-117 23l148 383q-233 123 -234 481zM352 514q0 -176 25 -268l250 641q-33 22 -90 22q-102 0 -143.5 -88 t-41.5 -307zM457 129q31 -16 80 -16q102 0 143 89t41 310q0 158 -21 242z" />
<glyph unicode="&#xf9;" horiz-adv-x="1101" d="M115 328v696h272v-639q0 -135 33 -186.5t106 -51.5q49 0 93.5 19.5t64.5 39.5l21 19v799h272v-1024h-219l-39 90h-4q-4 -4 -10.5 -12t-30 -27.5t-53 -34t-81 -27t-110.5 -12.5q-315 0 -315 351zM264 1440l217 71l174 -301l-127 -34z" />
<glyph unicode="&#xfa;" horiz-adv-x="1101" d="M115 328v696h272v-639q0 -135 33 -186.5t106 -51.5q49 0 93.5 19.5t64.5 39.5l21 19v799h272v-1024h-219l-39 90h-4q-4 -4 -10.5 -12t-30 -27.5t-53 -34t-81 -27t-110.5 -12.5q-315 0 -315 351zM459 1184l143 311l221 -63l-248 -267z" />
<glyph unicode="&#xfb;" horiz-adv-x="1101" d="M115 328v696h272v-639q0 -135 33 -186.5t106 -51.5q49 0 93.5 19.5t64.5 39.5l21 19v799h272v-1024h-219l-39 90h-4q-4 -4 -10.5 -12t-30 -27.5t-53 -34t-81 -27t-110.5 -12.5q-315 0 -315 351zM279 1292l200 250h144l198 -250l-57 -92l-213 174l-213 -174z" />
<glyph unicode="&#xfc;" horiz-adv-x="1101" d="M115 328v696h272v-639q0 -135 33 -186.5t106 -51.5q49 0 93.5 19.5t64.5 39.5l21 19v799h272v-1024h-219l-39 90h-4q-4 -4 -10.5 -12t-30 -27.5t-53 -34t-81 -27t-110.5 -12.5q-315 0 -315 351zM221 1335q0 64 41 107q41 35 94.5 35t94.5 -35q41 -47 41 -107 q0 -61 -41 -106q-41 -37 -94.5 -37t-94.5 37q-41 41 -41 106zM602 1335q0 64 41 107q39 35 94 35q53 0 94 -35q41 -47 41 -107q0 -61 -41 -106q-41 -37 -94 -37q-57 0 -94 37q-41 41 -41 106z" />
<glyph unicode="&#xfd;" horiz-adv-x="985" d="M14 1024h330l250 -729l211 729h170l-354 -1047q-96 -264 -186.5 -388t-229.5 -124q-47 0 -87 8.5t-57 15.5l-16 7l23 160q53 -23 106 -23q92 0 149.5 73t127.5 253zM422 1184l143 311l221 -63l-247 -267z" />
<glyph unicode="&#xfe;" horiz-adv-x="1112" d="M119 -520v2048l272 16v-588h8q6 10 21.5 26.5t79 44.5t145.5 28q182 0 295 -144.5t113 -378.5q0 -254 -114 -408.5t-314 -154.5q-143 0 -234 68v-549zM391 201q4 -8 14.5 -20.5t52.5 -34t95 -21.5q113 0 160 91t47 310q0 207 -44 288t-153 81q-51 0 -94 -26.5t-58.5 -47 t-19.5 -33.5v-587z" />
<glyph unicode="&#xff;" horiz-adv-x="985" d="M14 1024h330l250 -729l211 729h170l-354 -1047q-96 -264 -186.5 -388t-229.5 -124q-47 0 -87 8.5t-57 15.5l-16 7l23 160q53 -23 106 -23q92 0 149.5 73t127.5 253zM184 1335q0 64 41 107q41 35 94.5 35t94.5 -35q41 -47 41 -107q0 -61 -41 -106q-41 -37 -94.5 -37 t-94.5 37q-41 41 -41 106zM565 1335q0 64 41 107q39 35 94 35q53 0 95 -35q41 -47 41 -107q0 -61 -41 -106q-41 -37 -95 -37q-57 0 -94 37q-41 41 -41 106z" />
<glyph unicode="&#x152;" horiz-adv-x="1902" d="M74 663.5q0 319.5 156.5 504t445.5 184.5q178 0 309 -72v51h801v-147h-516v-344q8 -61 10 -95h444v-143h-442q-3 -61 -12 -117v-338h545v-147h-830v49q-131 -72 -309 -72q-289 0 -445.5 183.5t-156.5 503zM385 664q0 -285 67.5 -413t223.5 -128q158 0 226.5 128t68.5 413 q0 283 -70 411.5t-225 128.5q-154 0 -222.5 -129t-68.5 -411z" />
<glyph unicode="&#x153;" horiz-adv-x="1638" d="M59 512q0 256 124 395.5t354 139.5q209 0 335 -121q119 119 309.5 118.5t296 -120t105.5 -342.5q0 -37 -4 -69t-8 -46l-4 -14h-551q2 -184 54 -261t169 -77q70 0 129 33.5t84 67.5l25 34l92 -72q-4 -8 -12.5 -21.5t-39 -48t-68.5 -61.5t-103.5 -48.5t-139.5 -21.5 q-223 0 -344 115q-121 -115 -325 -115q-229 0 -353.5 139.5t-124.5 395.5zM352 514q0 -223 41 -312t143.5 -89t143.5 89t41 310t-41 309t-143.5 88t-143.5 -88t-41 -307zM1016 586h313v47q0 156 -32.5 218t-114.5 62q-84 0 -121 -69.5t-45 -257.5z" />
<glyph unicode="&#x178;" horiz-adv-x="1071" d="M-14 1331h317l293 -604h4l287 604h196l-399 -786v-545h-285v514zM262 1612q0 63 41 106q41 35 94.5 35t94.5 -35q41 -47 40 -106q0 -61 -40 -107q-41 -37 -94.5 -37t-94.5 37q-41 41 -41 107zM643 1612q0 63 41 106q39 35 94 35q53 0 94 -35q41 -47 41 -106 q0 -61 -41 -107q-41 -37 -94 -37q-57 0 -94 37q-41 41 -41 107z" />
<glyph unicode="&#x2c6;" horiz-adv-x="731" d="M92 1292l201 250h143l199 -250l-57 -92l-213 174l-213 -174z" />
<glyph unicode="&#x2dc;" horiz-adv-x="876" d="M72 1290q4 8 10 20.5t28.5 44t48 56.5t70.5 44.5t95 19.5q80 0 172 -48.5t139 -48.5q33 0 58.5 16.5t34.5 32.5l9 17l74 -72q-2 -6 -7 -17.5t-23.5 -39t-42 -49t-65.5 -39t-91 -17.5q-70 0 -166.5 49.5t-151.5 49.5q-33 0 -62.5 -23.5t-42.5 -46.5l-14 -22z" />
<glyph unicode="&#x2000;" horiz-adv-x="919" />
<glyph unicode="&#x2001;" horiz-adv-x="1839" />
<glyph unicode="&#x2002;" horiz-adv-x="919" />
<glyph unicode="&#x2003;" horiz-adv-x="1839" />
<glyph unicode="&#x2004;" horiz-adv-x="613" />
<glyph unicode="&#x2005;" horiz-adv-x="459" />
<glyph unicode="&#x2006;" horiz-adv-x="306" />
<glyph unicode="&#x2007;" horiz-adv-x="306" />
<glyph unicode="&#x2008;" horiz-adv-x="229" />
<glyph unicode="&#x2009;" horiz-adv-x="367" />
<glyph unicode="&#x200a;" horiz-adv-x="102" />
<glyph unicode="&#x2010;" horiz-adv-x="681" d="M63 487v152h558v-152h-558z" />
<glyph unicode="&#x2011;" horiz-adv-x="681" d="M63 487v152h558v-152h-558z" />
<glyph unicode="&#x2012;" horiz-adv-x="681" d="M63 487v152h558v-152h-558z" />
<glyph unicode="&#x2013;" d="M63 487v152h949v-152h-949z" />
<glyph unicode="&#x2014;" horiz-adv-x="1388" d="M63 487v152h1264v-152h-1264z" />
<glyph unicode="&#x2018;" horiz-adv-x="370" d="M35 1085q0 119 66.5 253.5t162.5 213.5l72 -75q-70 -61 -114 -146.5t-48 -163.5h14q57 0 99 -34q41 -47 41 -106.5t-41 -104.5q-41 -37 -98.5 -37t-96.5 37q-8 6 -20 22q-37 59 -37 141z" />
<glyph unicode="&#x2019;" horiz-adv-x="368" d="M27 958q70 61 114.5 145.5t46.5 162.5h-14q-59 0 -98 37q-41 41 -41 104q0 65 41 106q41 37 98 37q55 0 98 -37l7 -8q49 -55 49 -155q0 -119 -66.5 -253t-163.5 -214z" />
<glyph unicode="&#x201a;" horiz-adv-x="368" d="M27 -272q70 61 114.5 146t46.5 163h-14q-57 0 -98 35q-41 41 -41 106q0 64 41 105q41 37 98 36q55 0 98 -36l9 -11q47 -55 47 -151q0 -117 -66.5 -253t-163.5 -216z" />
<glyph unicode="&#x201c;" horiz-adv-x="753" d="M35 1085q0 119 66.5 253.5t162.5 213.5l72 -75q-70 -61 -114 -146.5t-48 -163.5h14q57 0 99 -34q41 -47 41 -106.5t-41 -104.5q-41 -37 -98.5 -37t-96.5 37q-8 6 -20 22q-37 59 -37 141zM418 1085q0 119 66.5 253.5t162.5 213.5l72 -75q-70 -61 -114 -146.5t-48 -163.5 h14q57 0 99 -34q41 -47 41 -106.5t-41 -104.5q-39 -37 -99 -37q-55 0 -96 37q-8 6 -20 22q-37 59 -37 141z" />
<glyph unicode="&#x201d;" horiz-adv-x="753" d="M27 958q70 61 114.5 145.5t46.5 162.5h-14q-59 0 -98 37q-41 41 -41 104q0 65 41 106q41 37 98 37q55 0 98 -37l7 -8q49 -55 49 -155q0 -119 -66.5 -253t-163.5 -214zM410 958q70 61 114.5 145.5t46.5 162.5h-14q-57 0 -98 37q-41 41 -41 104q0 65 41 106q39 37 98 37 q55 0 98 -37l7 -8q49 -55 49 -155q0 -119 -66.5 -253t-163.5 -214z" />
<glyph unicode="&#x201e;" horiz-adv-x="753" d="M27 -272q70 61 114.5 146t46.5 163h-14q-57 0 -98 35q-41 41 -41 106q0 64 41 105q41 37 98 36q55 0 98 -36l9 -11q47 -55 47 -151q0 -117 -66.5 -253t-163.5 -216zM410 -272q70 61 114.5 146t46.5 163h-14q-57 0 -98 35q-41 41 -41 106q0 64 41 105q41 37 98 36 q55 0 98 -36l9 -11q47 -55 47 -151q0 -117 -66.5 -253t-163.5 -216z" />
<glyph unicode="&#x2022;" horiz-adv-x="778" d="M123 676q0 110 74 190q72 63 176 63.5t174 -63.5q76 -82 76 -190q0 -111 -76 -191q-72 -66 -174 -65q-100 0 -176 65q-74 76 -74 191z" />
<glyph unicode="&#x2026;" horiz-adv-x="1656" d="M139 131q0 70 49 123q45 43 115 43q66 0 113 -43q49 -53 49 -123q0 -72 -49 -121q-47 -43 -113 -43q-70 0 -115 43q-49 49 -49 121zM664 131q0 70 49 123q45 43 114 43q68 0 113 -43q49 -51 49 -123t-49 -121q-45 -43 -113 -43q-70 0 -114 43q-49 49 -49 121zM1186 131 q0 70 49 123q45 43 115 43q68 0 112 -43q49 -51 49 -123t-49 -121q-45 -43 -112 -43q-70 0 -115 43q-49 49 -49 121z" />
<glyph unicode="&#x202f;" horiz-adv-x="367" />
<glyph unicode="&#x2039;" horiz-adv-x="720" d="M162 512l364 381l70 -76l-182 -307l182 -309l-72 -80z" />
<glyph unicode="&#x203a;" horiz-adv-x="720" d="M121 195l184 307l-182 311l74 80l358 -391l-360 -381z" />
<glyph unicode="&#x205f;" horiz-adv-x="459" />
<glyph unicode="&#x20ac;" horiz-adv-x="1163" d="M82 457v121h102q-2 27 -2 81v56l-100 10v121h111q68 504 528 504q88 0 173 -22.5t126 -45.5l41 -22l-31 -142q-137 86 -276 86q-135 0 -193.5 -75.5t-73.5 -282.5h447v-141h-451v-127h451v-144h-440q18 -186 82.5 -251.5t197.5 -65.5q76 0 148.5 36.5t106.5 73.5l34 37 l53 -102q-4 -8 -14 -20.5t-45 -44t-77 -56.5t-111.5 -44.5t-147.5 -19.5q-444 0 -522 467z" />
<glyph unicode="&#x2122;" horiz-adv-x="1630" d="M104 1421v115h633v-113l-241 -2v-602h-168v602h-224zM770 819l45 717h170l168 -569l197 569h163l17 -717h-158l-14 457l-160 -457h-147l-158 481l-12 -481h-111z" />
<glyph unicode="&#xe000;" horiz-adv-x="1025" d="M0 1025h1025v-1025h-1025v1025z" />
<glyph unicode="&#xfb01;" horiz-adv-x="1177" d="M76 866v123l96 29v151q0 186 84 286.5t285 100.5q131 0 272 -102q43 37 105 37q63 0 104 -39q45 -47 45 -117q0 -72 -45 -118q-45 -39 -104 -39q-61 0 -109 41q-47 47 -47 116v17q-94 63 -168 63q-88 0 -119 -55t-31 -221v-115h261v-158h-261v-866h-272v866h-96zM780 0 v1024h273v-1024h-273z" />
<glyph unicode="&#xfb02;" horiz-adv-x="1196" d="M72 866v123l100 29v151q0 178 81 282.5t228 104.5q139 0 318 -69v41l272 16v-1544h-272v1348q-168 72 -242 71q-63 0 -88 -57t-25 -223v-115h256v-158h-256v-866h-272v866h-100z" />
<glyph unicode="&#xfb03;" horiz-adv-x="1934" d="M1520 1335q1 68 48 115q43 41 108 41q63 0 105 -39q45 -47 45 -117q0 -72 -45 -118q-45 -39 -105 -39q-61 0 -108 41q-47 47 -48 116zM1539 0v1024h272v-1024h-272zM780 866v123l100 29v151q0 387 324 387q51 0 108.5 -17t88.5 -35l32 -17l-35 -117q-88 49 -145 49 q-55 0 -78 -53t-23 -227v-115h256v-158h-256v-866h-272v866h-100zM72 866v123l100 29v151q0 387 324 387q51 0 108.5 -17t88.5 -35l32 -17l-35 -117q-88 49 -145 49q-55 0 -78 -53t-23 -227v-115h256v-158h-256v-866h-272v866h-100z" />
<glyph unicode="&#xfb04;" horiz-adv-x="1936" d="M1539 0v1528l272 16v-1544h-272zM780 866v123l100 29v151q0 387 324 387q51 0 108.5 -17t88.5 -35l32 -17l-35 -117q-88 49 -145 49q-55 0 -78 -53t-23 -227v-115h256v-158h-256v-866h-272v866h-100zM72 866v123l100 29v151q0 387 324 387q51 0 108.5 -17t88.5 -35 l32 -17l-35 -117q-88 49 -145 49q-55 0 -78 -53t-23 -227v-115h256v-158h-256v-866h-272v866h-100z" />
</font>
</defs>
</svg>
