<?xml version="1.0" standalone="no"?>
<!DOCTYPE svg PUBLIC "-//W3C//DTD SVG 1.1//EN" "http://www.w3.org/Graphics/SVG/1.1/DTD/svg11.dtd" >
<svg xmlns="http://www.w3.org/2000/svg">
<metadata>
This is a custom SVG webfont generated by Font Squirrel.
Copyright   : Copyright c 2012 by Stairsfor All rights reserved
Designer    : Andrij Shevchenko
Foundry     : Stairsforcom
Foundry URL : httpstairsforcom
</metadata>
<defs>
<font id="ArsenalBoldItalic" horiz-adv-x="1073" >
<font-face units-per-em="2048" ascent="1536" descent="-512" />
<missing-glyph horiz-adv-x="522" />
<glyph unicode=" "  horiz-adv-x="522" />
<glyph unicode="&#x09;" horiz-adv-x="522" />
<glyph unicode="&#xa0;" horiz-adv-x="522" />
<glyph unicode="!" horiz-adv-x="681" d="M203 106q-1 85 69 148q51 43 119 43q66 0 109 -43q33 -39 32 -96q0 -88 -67 -148q-55 -43 -120.5 -43t-106.5 43q-35 41 -35 96zM346 471l45 940l15 125h311l-15 -125l-221 -940h-135z" />
<glyph unicode="&#x22;" horiz-adv-x="815" d="M227 991l54 545l249 -8l-174 -537h-129zM618 991l54 545l250 -8l-174 -537h-130z" />
<glyph unicode="#" horiz-adv-x="1060" d="M147 381l19 131h164l106 305h-227l18 131h256l97 277l104 -33l-86 -244h242l84 238l106 -33l-72 -205h144l-21 -131h-170l-106 -305h235l-20 -131h-262l-96 -279l-105 35l84 244h-240l-84 -240l-104 35l72 205h-138zM446 512h242l107 305h-242z" />
<glyph unicode="$" horiz-adv-x="854" d="M94 262l92 107q8 -12 23.5 -32t70 -52.5t115.5 -32.5q84 0 128 45t44 113q0 49 -36.5 85.5t-88 63.5t-103.5 59.5t-89 89t-37 134.5q0 135 80 218t209 111l59 263h133l-8 -254q53 -8 106.5 -29t79.5 -36l27 -15l-43 -137q-127 90 -227 90q-70 0 -110 -36t-40 -93 q0 -49 40 -89t96.5 -70t111.5 -64.5t95 -92t40 -135.5q0 -137 -83 -230t-242 -118l-52 -227h-133l4 223q-90 10 -155.5 45t-85.5 65z" />
<glyph unicode="%" horiz-adv-x="1775" d="M201 877q0 217 115.5 353t306.5 136q143 0 224 -94t81 -250q0 -211 -114 -348t-308 -137q-150 0 -227.5 92t-77.5 248zM420 834q0 -168 102 -168q82 0 136.5 95t54.5 310q0 168 -109 168q-184 0 -184 -405zM532 16l734 1284l129 -40l-733 -1285zM1032 301 q0 217 116 353.5t306 136.5q143 0 224 -94.5t81 -250.5q0 -211 -113.5 -348t-308.5 -137q-150 0 -227.5 92t-77.5 248zM1251 258q0 -168 103 -168q82 0 136 95.5t54 310.5q0 168 -108 168q-184 0 -185 -406z" />
<glyph unicode="&#x26;" horiz-adv-x="1312" d="M121 307q0 160 91 255t226 136q-141 84 -141 254q0 182 124 291t320 109q61 0 128 -16.5t103 -31.5l36 -16l-41 -133q-102 59 -187 59q-100 0 -156.5 -74.5t-56.5 -224.5q0 -74 30 -114.5t73 -40.5h219l170 264h106l-37 -264h228l-21 -135h-227l-39 -283 q-10 -78 -10 -115q0 -63 21.5 -85.5t72.5 -22.5q29 0 58.5 6t44.5 13l16 7l-8 -118q-59 -49 -215 -50q-164 0 -218 95q-113 -94 -292 -95q-207 0 -312.5 90.5t-105.5 239.5zM408 309q0 -90 51 -141t145 -51q123 0 199 84v20q0 27 8 105l39 299h-236q-86 -6 -146 -91 t-60 -225z" />
<glyph unicode="'" horiz-adv-x="423" d="M227 991l54 545l249 -8l-174 -537h-129z" />
<glyph unicode="(" horiz-adv-x="735" d="M219 336q0 115 17 221q27 190 90 357t134.5 269.5t139.5 177.5t112 106l44 32l106 -72q-23 -23 -36 -37t-70.5 -95t-97.5 -168t-88 -241.5t-72 -328.5q-23 -158 -23 -303q0 -182 37 -322.5t73 -188.5l36 -48l-119 -70q-12 8 -30.5 24.5t-68 78t-86 136.5t-67.5 202 t-31 270z" />
<glyph unicode=")" horiz-adv-x="735" d="M29 -305q10 10 29.5 30.5t71.5 96.5t97 167t93.5 246.5t72.5 331.5q20 152 21 289q0 184 -36 326.5t-72 193.5l-36 51l121 72q12 -8 30.5 -24.5t67 -78t85 -136t67.5 -201.5t31 -271q0 -115 -17 -221q-27 -190 -91 -357t-137 -269.5t-141.5 -177t-113.5 -106.5l-45 -32z " />
<glyph unicode="*" horiz-adv-x="839" d="M164 1028l117 264l241 -198l-22 370h254l-138 -368l306 196l41 -264l-332 -31l217 -252l-225 -163l-72 350l-172 -350l-178 163l284 248z" />
<glyph unicode="+" horiz-adv-x="933" d="M131 487l21 152h333l54 377h145l-53 -377h330l-21 -152h-330l-53 -378h-145l53 378h-334z" />
<glyph unicode="," horiz-adv-x="542" d="M78 -272q76 61 131 146t72 163h-17q-55 0 -90 35q-29 39 -29 84q1 74 60 127q43 37 100 36q55 0 92 -36l9 -13l6 -10q23 -41 22 -96q0 -121 -90 -272.5t-209 -239.5z" />
<glyph unicode="-" horiz-adv-x="681" d="M133 487l21 152h555l-21 -152h-555z" />
<glyph unicode="." horiz-adv-x="608" d="M156 106q-1 85 69 148q53 43 119 43t109 -43q33 -39 32 -96q0 -88 -67 -148q-55 -43 -121 -43q-68 0 -107 43q-35 41 -34 96z" />
<glyph unicode="/" horiz-adv-x="935" d="M-55 -512l1040 2048h184l-1040 -2048h-184z" />
<glyph unicode="0" horiz-adv-x="1185" d="M168 485q0 184 29.5 333t96 272.5t186.5 192.5t288 69q436 0 436 -496q0 -408 -162.5 -643.5t-435.5 -235.5q-219 0 -328.5 132.5t-109.5 375.5zM455 391q0 -272 170 -272q125 0 210 196.5t85 587.5q0 147 -38 227t-132 80q-66 0 -117 -38.5t-92 -128t-63.5 -254 t-22.5 -398.5z" />
<glyph unicode="1" horiz-adv-x="815" d="M248 1157l332 174h219l-187 -1331h-268l158 1143l-217 -109z" />
<glyph unicode="2" horiz-adv-x="991" d="M70 0l30 211q70 27 172.5 100.5t210 179t182 249t74.5 282.5q0 98 -46 138t-134 40q-47 0 -112.5 -24.5t-107.5 -50.5l-42 -25l-6 151q164 100 338 101q199 0 305 -89t106 -237q0 -115 -57 -232.5t-155.5 -217t-195.5 -175t-208 -145.5h530l-34 -256h-850z" />
<glyph unicode="3" horiz-adv-x="1007" d="M96 143l90 121q4 -6 11.5 -15t34 -34t55 -43t75 -33.5t95.5 -15.5q250 0 250 362q0 147 -125 148q-25 0 -54.5 -15.5t-47.5 -29.5l-17 -15l-70 95l383 405h-491l51 258h719l-25 -172l-383 -395h15q145 0 237 -86t92 -238q0 -215 -155.5 -339t-360.5 -124 q-80 0 -149.5 17.5t-109.5 41t-68.5 48.5t-39.5 42z" />
<glyph unicode="4" horiz-adv-x="1091" d="M121 326l2 120q115 164 247 430.5t208 487.5l256 -33q-135 -360 -531 -864h389l168 663h205l-94 -663h131l-19 -117l-133 -22l-45 -328h-278l45 326h-551z" />
<glyph unicode="5" horiz-adv-x="1001" d="M63 139l97 115q10 -14 29.5 -35.5t89 -58.5t147.5 -37q129 0 201.5 102.5t72.5 280.5q0 203 -178 203q-102 0 -162 -64l-12 -20l-94 14l174 692h610l-51 -266h-485l-60 -244q63 18 123 19q197 0 309.5 -86t112.5 -256t-84 -292t-206 -175.5t-261 -53.5q-76 0 -142.5 16.5 t-106.5 40t-69.5 48t-41.5 41.5z" />
<glyph unicode="6" horiz-adv-x="1085" d="M156 422q0 156 45 317q82 317 230.5 465t340.5 148q66 0 137.5 -20.5t109.5 -40.5l38 -19l-53 -137q-119 74 -224 73q-119 0 -195.5 -96t-119.5 -336q123 86 244 86q170 0 269 -88t99 -260q0 -43 -6 -88q-31 -211 -168 -330t-348 -119q-190 0 -294.5 110t-104.5 335z M436 317q0 -111 33 -157.5t104 -46.5q88 0 135.5 70.5t69.5 230.5q10 82 10 131q0 188 -131 188q-94 0 -182 -96q-23 -98 -31 -188q-8 -66 -8 -132z" />
<glyph unicode="7" horiz-adv-x="923" d="M193 0q63 158 189 371t211 338t241 350h-613l39 272h819l-30 -215q-154 -217 -311.5 -535.5t-250.5 -580.5h-294z" />
<glyph unicode="8" horiz-adv-x="1097" d="M119 289q0 272 325 385q-209 74 -208 270q0 193 140 300.5t363 107.5q176 0 289 -80.5t113 -227.5q0 -264 -303 -368q242 -63 241 -273q0 -426 -534 -426q-426 0 -426 312zM424 279q0 -174 143 -175q98 0 153.5 86t55.5 240q0 141 -117 184q-20 -4 -43.5 -13t-60.5 -33.5 t-63.5 -58.5t-47 -94.5t-20.5 -135.5zM524 911q0 -133 99 -182q31 8 62.5 24.5t73.5 52.5t67.5 103.5t25.5 157.5q0 158 -135 158q-92 0 -142.5 -86.5t-50.5 -227.5z" />
<glyph unicode="9" horiz-adv-x="1085" d="M193 801q0 242 142 396.5t376 154.5q190 0 297.5 -109.5t107.5 -333.5q0 -152 -29 -266q-158 -666 -567 -666q-96 0 -173 27t-105 53l-29 27l72 125q10 -10 28.5 -24.5t77 -39t115.5 -24.5q221 0 297 418q-96 -82 -228 -82q-172 0 -277 84t-105 260zM477 774 q0 -188 133 -188q72 0 123 41t74 106q14 76 22 189q4 35 5 92q0 113 -33 158t-101 45q-102 0 -162.5 -117t-60.5 -326z" />
<glyph unicode=":" horiz-adv-x="610" d="M156 106q-1 85 69 148q53 43 119 43t109 -43q33 -39 32 -96q0 -88 -67 -148q-55 -43 -121 -43q-68 0 -107 43q-35 41 -34 96zM256 825q0 85 70 148q51 43 118 43q66 0 109 -43q33 -39 33 -96q0 -90 -68 -148q-55 -43 -120.5 -43t-106.5 43q-35 41 -35 96z" />
<glyph unicode=";" horiz-adv-x="608" d="M117 -272q76 61 131 146t71 163h-16q-55 0 -90 35q-29 39 -29 84q1 74 60 127q43 37 100 36q55 0 92 -36l8 -13l7 -10q23 -41 22 -96q0 -121 -90 -272.5t-209 -239.5zM256 825q0 85 70 148q51 43 118 43q66 0 109 -43q33 -39 33 -96q0 -90 -68 -148q-55 -43 -120.5 -43 t-106.5 43q-35 41 -35 96z" />
<glyph unicode="&#x3c;" horiz-adv-x="774" d="M188 645l553 463l68 -94l-381 -369l285 -366l-101 -95z" />
<glyph unicode="=" d="M102 289l21 151h950l-20 -151h-951zM160 686l20 152h950l-20 -152h-950z" />
<glyph unicode="&#x3e;" horiz-adv-x="774" d="M147 279l373 366l-270 369l94 94l424 -463l-555 -461z" />
<glyph unicode="?" horiz-adv-x="911" d="M215 106q0 85 70 148q51 43 118 43q66 0 109 -43q33 -39 33 -96q0 -88 -68 -148q-55 -43 -120.5 -43t-106.5 43q-35 41 -35 96zM309 1477q131 80 312 79q176 0 269 -96t93 -237q0 -94 -27.5 -164t-71.5 -114t-98.5 -79t-108.5 -68.5t-100.5 -73.5t-78 -104.5 t-35.5 -148.5l-109 -8q4 96 25.5 169t53.5 116t68 76.5t71.5 67.5t65.5 74t48.5 107.5t18.5 157.5q0 186 -166 186q-49 0 -102.5 -17.5t-82.5 -35.5l-28 -18z" />
<glyph unicode="@" horiz-adv-x="1765" d="M131 195q0 500 266.5 808t743.5 308q313 0 474 -150.5t161 -435.5q0 -362 -140.5 -562t-365.5 -200q-162 0 -197 90q-84 -92 -221 -92t-216 84t-79 254q0 231 132 385t315 154q111 0 178 -72l41 35h116l-79 -555q-6 -49 -7 -82q0 -88 60 -88q39 0 78 30.5t78.5 99 t65.5 206t26 323.5q0 233 -107.5 343t-331.5 110q-342 0 -545.5 -254t-203.5 -729q0 -291 129 -433.5t370 -142.5q133 0 253 45t173 90l54 46l43 -113q-8 -8 -21.5 -22.5t-63.5 -50.5t-108.5 -62.5t-153 -49t-196.5 -22.5q-367 0 -544 182.5t-177 522.5zM786 272 q0 -197 136 -196q84 0 139 92l4 29l65 460q-29 68 -114 68q-104 0 -167 -114.5t-63 -338.5z" />
<glyph unicode="A" horiz-adv-x="1245" d="M39 0l629 1331h313l227 -1331h-299l-61 373h-463l-174 -373h-172zM442 502h385l-96 626h-2z" />
<glyph unicode="B" horiz-adv-x="1165" d="M158 0l186 1331h406q215 0 320.5 -85t105.5 -216q0 -221 -244 -336q217 -70 217 -264q0 -186 -149.5 -308t-426.5 -122h-415zM459 133h127q125 0 202.5 87t77.5 231q0 165 -155 165h-185zM545 739h168q63 0 124.5 77t61.5 202q0 92 -47 136t-127 44h-115z" />
<glyph unicode="C" horiz-adv-x="1179" d="M156 524q0 365 194.5 596.5t517.5 231.5q94 0 191.5 -29t147.5 -56l50 -28l-43 -149q-178 108 -328 108h-3q-190 0 -306 -168t-116 -534q0 -365 307 -365q61 0 119.5 18.5t98.5 45t70.5 54t45.5 46.5l14 18l74 -98q-6 -10 -17.5 -25.5t-54.5 -56.5t-94 -72.5t-136 -57.5 t-181 -26q-264 0 -407.5 145.5t-143.5 401.5z" />
<glyph unicode="D" horiz-adv-x="1325" d="M158 0l186 1331h453q272 0 415.5 -136t143.5 -402q0 -375 -191.5 -584t-552.5 -209h-454zM461 145h174q418 0 418 701q0 176 -68 258t-209 82h-170z" />
<glyph unicode="E" d="M158 0l186 1331h799l-21 -147h-516l-61 -439h456l-22 -143h-453l-63 -455h543l-21 -147h-827z" />
<glyph unicode="F" horiz-adv-x="999" d="M158 0l186 1331h809l-20 -147h-527l-67 -492h456l-20 -143h-457l-78 -549h-282z" />
<glyph unicode="G" horiz-adv-x="1280" d="M156 520q0 379 195.5 605.5t527.5 226.5q94 0 193 -29t151 -56l51 -28l-49 -149q-178 108 -329 108h-3q-432 0 -432 -702q0 -365 252 -365q57 0 104 19.5t76 52.5t44 58.5t24 49.5l34 252h-207l21 139h446l-98 -702h-123l-55 119q-129 -141 -338 -142 q-236 0 -360.5 141.5t-124.5 401.5z" />
<glyph unicode="H" horiz-adv-x="1341" d="M158 0l186 1331h283l-82 -581h461l81 581h283l-186 -1331h-283l84 606h-461l-84 -606h-282z" />
<glyph unicode="I" horiz-adv-x="600" d="M158 0l186 1331h283l-187 -1331h-282z" />
<glyph unicode="J" horiz-adv-x="786" d="M33 59l47 119q53 -55 141 -55q78 0 127 67.5t76 247.5l125 893h285l-127 -893q-35 -254 -138.5 -357.5t-287.5 -103.5q-80 0 -141.5 20.5t-84.5 41.5z" />
<glyph unicode="K" horiz-adv-x="1267" d="M158 0l186 1331h283l-88 -618l135 90l465 528h196l-477 -520l385 -811h-358l-273 598l-98 -61l-74 -537h-282z" />
<glyph unicode="L" horiz-adv-x="980" d="M158 0l186 1331h283l-166 -1184h516l-21 -147h-798z" />
<glyph unicode="M" horiz-adv-x="1753" d="M158 0l202 1331h342l236 -981h8l504 981h317l-172 -1331h-276l125 1008h-4l-512 -1008h-211l-230 1008h-6l-147 -1008h-176z" />
<glyph unicode="N" horiz-adv-x="1333" d="M158 0l186 1331h293l432 -903h6l-2 92l113 811h176l-186 -1331h-222l-493 999h-4v-118l-123 -881h-176z" />
<glyph unicode="O" horiz-adv-x="1357" d="M156 530q0 367 184 594.5t512 227.5q270 0 402 -153.5t132 -395.5q0 -371 -199.5 -598.5t-500.5 -227.5q-252 0 -391 147.5t-139 405.5zM455 461q0 -158 63.5 -248t181.5 -90q174 0 279.5 176t105.5 563q0 156 -61 249t-186 93q-383 0 -383 -743z" />
<glyph unicode="P" horiz-adv-x="1091" d="M158 0l186 1331h408q203 0 313.5 -91t110.5 -275q0 -141 -51.5 -252t-134.5 -172.5t-174 -93t-185 -31.5h-131l-60 -416h-282zM518 547h98q115 0 186.5 105.5t71.5 340.5q1 205 -165 205h-99z" />
<glyph unicode="Q" horiz-adv-x="1357" d="M156 530q0 367 184 594.5t512 227.5q270 0 402 -153.5t132 -395.5q0 -317 -149.5 -532.5t-388.5 -272.5q88 -268 235 -268q31 0 66 12l-4 -125q-68 -23 -125 -23q-150 0 -269.5 113t-166.5 279q-207 27 -317.5 170t-110.5 374zM455 461q0 -158 63.5 -248t181.5 -90 q174 0 279.5 176t105.5 563q0 156 -61 249t-186 93q-383 0 -383 -743z" />
<glyph unicode="R" horiz-adv-x="1183" d="M158 0l186 1331h410q203 0 315.5 -90t112.5 -258q0 -156 -81 -268.5t-210 -173.5l233 -541h-325l-183 483h-108l-68 -483h-282zM526 618h107q248 0 248 390q0 190 -174 190h-99z" />
<glyph unicode="S" horiz-adv-x="1007" d="M90 164l94 119q4 -6 11.5 -16.5t34 -37t58 -47t82 -37t105.5 -16.5q111 0 167 57.5t56 145.5q0 59 -46 109.5t-111.5 90t-132 86t-112.5 123t-46 174.5q0 201 138 319t353 118q82 0 159 -23.5t113 -47.5l36 -24l-45 -139q-123 90 -265 90q-88 0 -142 -49t-54 -137 q0 -57 33.5 -105.5t83 -80t108.5 -72.5t108.5 -83t83 -108.5t33.5 -150.5q0 -207 -147.5 -326t-358.5 -119q-82 0 -152.5 19.5t-113.5 46.5t-74.5 54.5t-44.5 46.5z" />
<glyph unicode="T" horiz-adv-x="1056" d="M195 1184l22 147h1000l-23 -147h-356l-166 -1184h-285l166 1184h-358z" />
<glyph unicode="U" horiz-adv-x="1257" d="M199 375q0 57 8 108l119 848h284l-110 -784q-12 -86 -13 -154q0 -137 50.5 -198.5t154.5 -61.5q137 0 217 100.5t109 313.5l110 784h175l-119 -848q-72 -506 -559 -506q-213 0 -319.5 103.5t-106.5 294.5z" />
<glyph unicode="V" horiz-adv-x="1179" d="M205 1331h299l158 -1124h6l499 1124h179l-615 -1331h-313z" />
<glyph unicode="W" horiz-adv-x="1787" d="M205 1331h301l104 -1007h4l414 1007h227l142 -1001h4l373 1001h180l-535 -1331h-241l-142 983h-6l-412 -983h-245z" />
<glyph unicode="X" horiz-adv-x="1189" d="M16 0l504 647l-299 684h354l179 -477h6l352 477h201l-473 -614l334 -717h-353l-215 508h-4l-373 -508h-213z" />
<glyph unicode="Y" horiz-adv-x="1071" d="M172 1331h317l209 -604h2l373 604h197l-512 -784l-74 -547h-285l72 514z" />
<glyph unicode="Z" horiz-adv-x="1161" d="M86 0l18 119l791 1065h-606l20 147h946l-18 -123l-788 -1061h638l-20 -147h-981z" />
<glyph unicode="[" horiz-adv-x="790" d="M147 -182l232 1638h600l-21 -141h-362l-190 -1358h362l-20 -139h-601z" />
<glyph unicode="\" horiz-adv-x="935" d="M201 1536h184l461 -2048h-182z" />
<glyph unicode="]" horiz-adv-x="790" d="M-10 -182l20 139h359l190 1358h-358l18 139h602l-229 -1636h-602z" />
<glyph unicode="^" horiz-adv-x="731" d="M215 1087l350 343l258 -343l-94 -90l-194 217l-254 -217z" />
<glyph unicode="_" horiz-adv-x="1390" d="M14 -332l21 152h1265l-20 -152h-1266z" />
<glyph unicode="`" horiz-adv-x="495" d="M129 1440l227 71l131 -301l-131 -34z" />
<glyph unicode="a" horiz-adv-x="1110" d="M121 399q0 279 147.5 463.5t380.5 184.5q84 0 140.5 -21.5t71.5 -42.5l16 -20h8l49 61h201l-144 -1024h-209l-32 90h-2q-2 -4 -7.5 -12t-27 -27.5t-49 -34t-76.5 -27t-109 -12.5q-162 0 -260 114t-98 308zM408 358q-1 -221 159 -221q49 0 92 20.5t60.5 38t28.5 33.5 l83 580q-41 82 -145 82q-131 0 -204.5 -133t-73.5 -400z" />
<glyph unicode="b" horiz-adv-x="1112" d="M119 0l215 1528l274 16l-84 -596h11q6 10 22 26.5t80.5 43t146.5 26.5q160 0 256.5 -112.5t96.5 -302.5q0 -279 -141.5 -465.5t-374.5 -186.5q-84 0 -147.5 23t-86.5 46l-22 24h-5l-55 -70h-186zM420 197q31 -63 149 -64q281 0 281 545q0 209 -162 209q-53 0 -100 -26.5 t-67 -53.5l-19 -27z" />
<glyph unicode="c" horiz-adv-x="913" d="M123 414q0 287 152.5 460t414.5 173q68 0 142.5 -24t115.5 -48l41 -25l-39 -131q-135 90 -229 90q-307 0 -307 -557q0 -125 56 -181t142 -56q72 0 130.5 31.5t80.5 63.5l23 32l88 -62q-4 -8 -11.5 -21.5t-38 -49t-68.5 -62.5t-105.5 -48.5t-147.5 -21.5 q-207 0 -323.5 114t-116.5 323z" />
<glyph unicode="d" horiz-adv-x="1112" d="M121 410q0 274 140 454t360 180q80 0 137 -19t75 -39l17 -19h6l78 561l276 16l-217 -1544h-227l-18 92h-3q-8 -12 -24 -31.5t-83 -51.5t-155 -32q-168 0 -265 119t-97 314zM445.5 189q39.5 -52 121.5 -52q49 0 95.5 23.5t64.5 41t25 27.5l84 592q-47 68 -152 68 q-278 0 -278 -523q0 -125 39.5 -177z" />
<glyph unicode="e" horiz-adv-x="970" d="M121 399q0 303 153.5 474t395.5 171q160 0 252 -81.5t92 -204.5q0 -74 -29 -131.5t-83 -91t-110.5 -56t-134 -32t-132 -12.5t-122.5 -3q-2 -29 -2 -90q0 -227 215 -227q70 0 131.5 28.5t87.5 56.5l25 27l82 -73q-4 -6 -13 -18.5t-42 -43.5t-73 -53.5t-107.5 -42 t-143.5 -19.5q-199 0 -320.5 105.5t-121.5 316.5zM412 549q61 0 104 3t95.5 17.5t84 38t53 68.5t21.5 108q0 129 -133 129q-86 0 -145.5 -92t-79.5 -272z" />
<glyph unicode="f" horiz-adv-x="704" d="M-178 -473l61 123q47 -39 105 -39q66 0 105.5 73t64.5 257l131 925h-101l19 123l102 29l23 151q57 387 379 387q51 0 105 -17t84 -35l30 -17l-51 -117q-80 49 -138 49q-55 0 -85.5 -53t-55.5 -227l-16 -115h256l-23 -158h-256l-131 -925q-68 -475 -428 -476 q-57 0 -102 15.5t-62 31.5z" />
<glyph unicode="g" horiz-adv-x="944" d="M-2 -221q0 201 166 282q-14 43 -14 86q0 137 120 224q-121 84 -120 252q0 207 135 314t336 107q78 0 149 -22l281 -2l-11 -121l-104 -6q37 -70 37 -158q0 -205 -126 -319.5t-331 -114.5q-78 0 -139 18q-47 -35 -47 -79q0 -74 172 -74q227 0 326.5 -76t99.5 -217 q0 -184 -127 -297t-375 -113q-209 0 -318.5 85t-109.5 231zM184 -203q0 -94 69 -144t193 -50q129 0 186.5 46t57.5 138q0 74 -53 106.5t-180 32.5q-131 0 -205 41q-68 -59 -68 -170zM410 588q0 -162 118 -162q82 0 134.5 82t52.5 260q0 145 -119 145q-186 0 -186 -325z" />
<glyph unicode="h" horiz-adv-x="1091" d="M119 0l215 1528l274 16l-84 -590h8l7 5q6 5 17 13.5t27.5 17.5t39 18.5t49 17.5t61.5 13t72 5q280 0 280 -260q0 -43 -6 -90l-96 -694h-272l94 672q6 49 6 84q0 68 -26.5 93t-90.5 25q-51 0 -99 -18t-70 -37l-21 -18l-113 -801h-272z" />
<glyph unicode="i" horiz-adv-x="509" d="M119 0l143 1024h273l-144 -1024h-272zM287 1311q-1 84 65 139q47 41 113 41q63 0 100 -39q31 -40 31 -92q0 -84 -64 -143q-51 -39 -112 -39q-66 0 -101 41q-33 35 -32 92z" />
<glyph unicode="j" horiz-adv-x="565" d="M-172 -473l61 123q45 -39 103 -39q68 0 107.5 73t64.5 257l151 1083h273l-152 -1083q-35 -248 -148.5 -362t-279.5 -114q-59 0 -104 15.5t-61 31.5zM342 1311q0 84 66 139q47 41 112 41q63 0 101 -39q31 -40 30 -92q0 -84 -63 -143q-51 -39 -113 -39q-66 0 -100 41 q-33 35 -33 92z" />
<glyph unicode="k" horiz-adv-x="1003" d="M119 0l215 1528l274 16l-135 -954l156 96l264 338h168l-318 -379l240 -645h-311l-162 479l-57 -33l-62 -446h-272z" />
<glyph unicode="l" horiz-adv-x="512" d="M119 0l215 1528l274 16l-217 -1544h-272z" />
<glyph unicode="m" horiz-adv-x="1548" d="M119 0l143 1024h219l23 -92h6q12 12 34.5 30.5t94.5 50t147 31.5q176 0 220 -116q116 116 296 116h3q125 0 183 -55t58 -176q0 -29 -8 -98l-100 -715h-273l99 694q6 47 6 78q0 61 -22.5 83t-67.5 22q-88 0 -158 -89l-6 -69l-101 -719h-272l96 694q6 49 6 80 q0 59 -21.5 81t-64.5 22q-82 0 -155 -74l-113 -803h-272z" />
<glyph unicode="n" horiz-adv-x="1093" d="M119 0l143 1024h219l25 -82h6q10 12 29.5 28.5t96.5 45t169 28.5q280 0 280 -262q0 -42 -6 -88l-96 -694h-272q84 610 94 672q6 43 6 76q0 72 -29.5 99t-95.5 27q-111 0 -184 -73l-113 -801h-272z" />
<glyph unicode="o" horiz-adv-x="1075" d="M123 399q0 295 148.5 471.5t412.5 176.5q193 0 302.5 -109.5t109.5 -312.5q0 -295 -154 -471.5t-410 -176.5q-190 0 -299.5 110t-109.5 312zM561 113q252 0 252 585q0 211 -156 211q-251 0 -251 -578q0 -218 155 -218z" />
<glyph unicode="p" horiz-adv-x="1112" d="M47 -520l215 1544h219l25 -92h4q10 12 29.5 31.5t91 51.5t157.5 32q158 0 252.5 -112t94.5 -300q0 -283 -137.5 -470.5t-356.5 -187.5q-80 0 -139.5 19.5t-77.5 39.5l-18 19h-7l-80 -567zM418 197q47 -63 143 -64q285 0 285 524q0 229 -168 230q-49 0 -93 -21.5 t-63 -44.5l-18 -22l-2 2z" />
<glyph unicode="q" horiz-adv-x="1112" d="M121 395q0 279 147.5 465.5t366.5 186.5q76 0 137.5 -21.5t84.5 -43.5l24 -21h2l69 63h185l-217 -1536l-275 -8l84 594h-8q-2 -4 -7 -10.5t-26.5 -22.5t-47.5 -29.5t-71 -24t-96 -10.5q-162 0 -257 114t-95 304zM452 190q42 -53 126 -53q102 0 172 84l84 602 q-4 8 -14.5 20.5t-46.5 30t-81 17.5q-282 0 -282 -514q0 -67 10.5 -114t31.5 -73z" />
<glyph unicode="r" horiz-adv-x="722" d="M119 0l143 1024h193l22 -172h6q2 8 6.5 21.5t20.5 46t37.5 58.5t57.5 47.5t79 21.5q31 0 74 -7.5t71 -14.5l29 -7l-45 -191q-106 29 -178 29q-86 0 -139 -119l-105 -737h-272z" />
<glyph unicode="s" horiz-adv-x="854" d="M74 123l92 106q8 -12 23.5 -31.5t69.5 -52t116 -32.5q84 0 128 45t44 112q0 49 -37 86t-89 63.5t-103.5 59.5t-88 89.5t-36.5 133.5q0 168 119.5 256.5t289.5 88.5q66 0 134.5 -21.5t105.5 -43.5l37 -21l-43 -138q-127 90 -228 90q-70 0 -109.5 -35.5t-39.5 -93.5 q0 -49 40 -89t96 -69.5t111.5 -64.5t95.5 -92t40 -135q0 -160 -110.5 -258.5t-323.5 -98.5q-74 0 -135.5 15.5t-96.5 36t-59.5 42t-33.5 37.5z" />
<glyph unicode="t" horiz-adv-x="722" d="M182 866l19 123l104 27l180 348h138l-48 -340h226l-23 -158h-225l-72 -506q-10 -66 -10 -129q0 -61 17.5 -83.5t58.5 -22.5q29 0 56.5 5t39.5 9l12 4l-2 -116q-57 -49 -213 -50q-125 0 -185 52.5t-60 171.5q0 41 6 90l80 575h-99z" />
<glyph unicode="u" horiz-adv-x="1093" d="M156 328l98 696h272l-90 -639q-8 -51 -8 -100q0 -76 28.5 -107t88.5 -31q49 0 96 19.5t70 39.5l22 19l111 799h272l-143 -1024h-219l-27 90h-4q-4 -4 -10 -12t-33 -27.5t-57.5 -34t-82 -27t-110.5 -12.5q-280 0 -280 263q0 42 6 88z" />
<glyph unicode="v" horiz-adv-x="978" d="M160 1024h329l99 -729h8l332 729h178l-506 -1024h-227z" />
<glyph unicode="w" horiz-adv-x="1452" d="M164 1024h309l55 -682h7l288 682h189l118 -682h7l260 682h176l-443 -1024h-219l-90 668v2h-6l-283 -670h-219z" />
<glyph unicode="x" horiz-adv-x="968" d="M18 0l385 494l-225 530h326l119 -362l243 362h187l-351 -467l248 -557h-325l-140 383l-276 -383h-191z" />
<glyph unicode="y" horiz-adv-x="999" d="M-18 -504l43 160q47 -23 100 -23q94 0 162.5 74t163.5 252l-285 1065h328l149 -725l313 725h168l-503 -1047q-125 -258 -235 -385t-251 -127q-47 0 -86 8.5t-53 15.5z" />
<glyph unicode="z" horiz-adv-x="888" d="M53 0l17 123l577 762h-430l12 139h748l-19 -123l-569 -762h447l-17 -139h-766z" />
<glyph unicode="{" horiz-adv-x="831" d="M268 522l17 115l4 35q68 0 135.5 46t67.5 140q0 39 -5.5 136.5t-5.5 140.5q0 98 18.5 164.5t71 123t154.5 83t258 26.5l-20 -133q-137 0 -192.5 -62.5t-55.5 -197.5q0 -41 4 -139.5t4 -137.5q0 -188 -174 -262q121 -53 121 -160q0 -68 -63.5 -248t-63.5 -251 q0 -143 194 -144l-18 -135q-223 0 -317.5 65.5t-94.5 194.5q0 98 61.5 269t61.5 217q0 53 -54.5 83.5t-107.5 30.5z" />
<glyph unicode="|" horiz-adv-x="700" d="M201 -512l288 2048h158l-289 -2048h-157z" />
<glyph unicode="}" horiz-adv-x="831" d="M68 -338l20 135q137 0 191.5 62.5t54.5 197.5q0 41 -4 139.5t-4 137.5q0 188 176 262q-121 53 -121 160q0 68 63.5 248t63.5 251q0 143 -195 144l17 133q225 0 319 -64.5t94 -193.5q0 -98 -62.5 -269t-62.5 -219q0 -53 55.5 -83.5t108.5 -30.5l-6 -35h2l-16 -115 q-68 0 -136.5 -45t-68.5 -137q0 -37 6 -137.5t6 -145.5q0 -98 -18.5 -163.5t-70.5 -122t-154.5 -83t-257.5 -26.5z" />
<glyph unicode="~" horiz-adv-x="1224" d="M143 649q4 12 11.5 31.5t37 70t67.5 88.5t104.5 69.5t146.5 31.5q94 0 176 -38t131 -82t113.5 -82t128.5 -38q49 0 86 25t48 48l11 24l78 -54q-4 -12 -11 -31.5t-36 -70.5t-64.5 -90t-99 -70.5t-137.5 -31.5q-86 0 -163 37.5t-124 82.5t-114.5 83t-137.5 38 q-53 0 -97 -25.5t-60 -51.5l-17 -25z" />
<glyph unicode="&#xa1;" horiz-adv-x="681" d="M106 -512l19 125l219 938h137l-45 -938l-16 -125h-314zM291 866q-1 85 69 148q53 43 119 43t109 -43q33 -39 33 -96q0 -90 -68 -148q-55 -43 -121 -43q-68 0 -106 43q-35 41 -35 96z" />
<glyph unicode="&#xa2;" horiz-adv-x="913" d="M143 557q0 252 119 418t330 205l57 254h133l-8 -250q57 -8 115.5 -31t89.5 -41l31 -18l-39 -131q-135 90 -230 90q-307 0 -307 -557q0 -125 56.5 -181.5t142.5 -56.5q72 0 130 32t81 63l22 32l88 -61q-4 -8 -10 -20.5t-33.5 -45.5t-61.5 -58.5t-94.5 -49t-129.5 -29.5 l-50 -223h-135l6 237q-145 35 -224 142.5t-79 279.5z" />
<glyph unicode="&#xa3;" horiz-adv-x="1087" d="M82 0l37 250h82q127 80 137 321l-174 15l18 131h160q0 117 8 213q14 207 137 314.5t330 107.5q66 0 136.5 -20.5t108.5 -42.5l38 -21l-60 -133q-109 70 -184 69q-90 0 -134 -52t-67 -210q-20 -141 -41 -225h420l-20 -150h-436q-63 -205 -164 -317h663l-35 -250h-960z" />
<glyph unicode="&#xa4;" horiz-adv-x="1118" d="M121 258l223 166q-35 74 -35 164q0 158 86 280l-166 164l121 137l133 -208q96 74 215 73q113 0 195 -78l203 211l82 -135l-222 -164q39 -78 39 -168q0 -160 -90 -282l164 -162l-119 -137l-135 207q-98 -72 -211 -72q-117 0 -196 80l-203 -213zM459 602q0 -90 44 -142 t124 -52q90 0 154.5 76.5t64.5 203.5q0 92 -46 143.5t-126 51.5q-92 0 -153.5 -77t-61.5 -204z" />
<glyph unicode="&#xa5;" horiz-adv-x="1208" d="M426 1331h317l209 -604h2l373 604h197l-420 -641h192l-18 -129h-258l-8 -14l-17 -121h265l-19 -131h-264l-39 -295h-285l41 295h-241l20 131h240l12 88l-18 47h-218l21 129h149z" />
<glyph unicode="&#xa6;" horiz-adv-x="700" d="M201 -512l114 819h158l-115 -819h-157zM373 717l116 819h158l-117 -819h-157z" />
<glyph unicode="&#xa7;" horiz-adv-x="1034" d="M172 4l72 111q6 -12 20.5 -32t69.5 -52.5t121 -32.5q176 0 176 145q0 47 -43 82t-105.5 60.5t-125 58.5t-105.5 97.5t-43 154.5q0 205 166 319q-20 47 -21 101q0 152 110.5 244t293.5 92q70 0 142.5 -24.5t110.5 -48.5l38 -24l-48 -122q-129 82 -225 81q-82 0 -123 -42 t-41 -99q0 -53 45 -91t109.5 -64.5t129.5 -59.5t110 -94.5t45 -149.5q0 -193 -181 -319q20 -45 21 -96q0 -150 -110.5 -244t-309.5 -94q-63 0 -118.5 14t-87.5 35.5t-54.5 43t-30.5 36.5zM393 690q0 -72 68.5 -119t179.5 -93t164 -93q63 55 63 143q0 63 -70.5 108.5 t-183 93.5t-168.5 95q-53 -49 -53 -135z" />
<glyph unicode="&#xa8;" horiz-adv-x="864" d="M188 1313q1 76 58 129q45 35 100 35q53 0 88 -35q29 -39 29 -84q0 -76 -60 -129q-45 -37 -98 -37q-55 0 -88 37q-29 35 -29 84zM569 1313q1 76 58 129q45 35 98 35q51 0 90 -35q29 -39 29 -84q0 -76 -60 -129q-47 -37 -100 -37q-55 0 -86 37q-29 35 -29 84z" />
<glyph unicode="&#xa9;" horiz-adv-x="1492" d="M203 557q0 367 196.5 588t536.5 221q258 0 398.5 -155.5t140.5 -419.5q-1 -87 -11 -150q-45 -322 -234.5 -501t-490.5 -179q-260 0 -398 163t-138 433zM332 569q0 -225 110.5 -358t309.5 -133q238 0 393 144.5t192 416.5q10 78 11 133q0 221 -115 350t-315 129 q-268 0 -427 -183t-159 -499zM530 608q0 188 114 298t278 110q53 0 100 -20.5t67 -40.5l19 -19l-43 -94q-63 66 -135 65q-88 0 -144.5 -75.5t-56.5 -239.5q0 -86 44 -137.5t108 -51.5q49 0 87 24t51 48l13 25l51 -60q-2 -6 -6 -16t-22.5 -34.5t-44 -44t-74.5 -36t-111 -16.5 q-123 0 -209 87t-86 228z" />
<glyph unicode="&#xaa;" horiz-adv-x="845" d="M174 813q0 68 34 123t84 88t118.5 55.5t126 32.5t118.5 14l2 11q4 37 5 51q0 109 -113 108q-49 0 -100.5 -21.5t-77.5 -42.5l-27 -22l-41 72q10 12 30.5 31.5t99.5 52.5t177 33q291 0 291 -221q0 -18 -4 -60l-66 -463h-186l-37 80q-8 -18 -23.5 -37.5t-68.5 -44 t-127 -24.5q-104 0 -159.5 49t-55.5 135zM414 840q0 -88 88 -88q82 0 110 69l31 217q-115 -14 -172 -59t-57 -139z" />
<glyph unicode="&#xab;" horiz-adv-x="1097" d="M233 512l418 381l60 -76l-226 -309l138 -307l-80 -80zM612 512l418 381l60 -76l-226 -309l137 -307l-79 -80z" />
<glyph unicode="&#xac;" horiz-adv-x="1013" d="M182 571l23 150h805l-21 -150l-47 -335h-137l45 335h-668z" />
<glyph unicode="&#xad;" horiz-adv-x="733" d="M158 487l20 152h555l-20 -152h-555z" />
<glyph unicode="&#xae;" horiz-adv-x="1370" d="M207 782q0 346 192.5 559t501.5 213q238 0 374 -152.5t136 -404.5q0 -59 -10 -137q-41 -305 -223.5 -480t-466.5 -175q-242 0 -373 159.5t-131 417.5zM334 793q0 -211 103.5 -341t289.5 -130q221 0 366.5 141t182.5 395q8 57 8 123q0 211 -105.5 337t-293.5 126 q-252 0 -401.5 -181.5t-149.5 -469.5zM561 561l76 553l12 82h203q229 0 229 -168q0 -147 -141 -209l78 -260h-160l-65 234h-56l-32 -232h-144zM748 872h61q111 0 111 162q0 78 -78 78h-60z" />
<glyph unicode="&#xaf;" horiz-adv-x="876" d="M399 1278l17 119h438l-14 -119h-441z" />
<glyph unicode="&#xb0;" horiz-adv-x="862" d="M229 1077q0 217 116 353.5t306 136.5q143 0 224 -94t81 -250q0 -211 -113.5 -348.5t-307.5 -137.5q-150 0 -228 92.5t-78 247.5zM449 1034q0 -168 102 -168q82 0 136 95.5t54 310.5q0 168 -108 168q-184 0 -184 -406z" />
<glyph unicode="&#xb1;" d="M100 264l21 152h950l-20 -152h-951zM276 999l21 152h334l53 377h145l-53 -377h330l-21 -152h-329l-54 -378h-145l53 378h-334z" />
<glyph unicode="&#xb2;" horiz-adv-x="847" d="M139 471l27 195q66 25 143.5 77t157.5 128.5t133 185t53 223.5q0 82 -29.5 112.5t-97.5 30.5q-33 0 -83 -20.5t-85 -40.5l-34 -21l-21 117q152 98 297 98q160 0 241 -80.5t81 -205.5q0 -287 -447 -565h375l-33 -234h-678z" />
<glyph unicode="&#xb3;" horiz-adv-x="845" d="M158 551l67 111q8 -8 24.5 -21.5t69 -36t107.5 -22.5q203 0 203 282q0 102 -74 103q-35 0 -72 -33l-12 -12l-63 86l284 292h-362l39 236h575l-22 -158l-291 -295q104 -2 175 -72.5t71 -191.5q0 -174 -129.5 -272t-294.5 -98q-98 0 -172 25.5t-99 50.5z" />
<glyph unicode="&#xb4;" horiz-adv-x="495" d="M291 1184l186 311l213 -63l-284 -267z" />
<glyph unicode="&#xb5;" horiz-adv-x="1103" d="M47 -512l154 1092l63 444h273l-91 -639q-8 -51 -8 -100q0 -76 29 -107t88 -31q49 0 96 19.5t70 39.5l22 19l111 799h272l-143 -1024h-219l-27 90h-4q-4 -4 -10 -12t-32.5 -27.5t-57.5 -34t-82 -27t-111 -12.5q-29 0 -69 5q-20 -328 -43 -494h-281z" />
<glyph unicode="&#xb6;" horiz-adv-x="1310" d="M195 831q0 244 133 372t450 128h645l-24 -180h-129l-162 -1151h-207l162 1151h-164l-162 -1151h-200l65 475q-408 0 -407 356z" />
<glyph unicode="&#xb7;" horiz-adv-x="608" d="M242 721q-1 84 69 147q53 43 119 43t109 -43q33 -39 32 -96q0 -88 -67 -147q-55 -43 -121 -43q-68 0 -107 43q-35 41 -34 96z" />
<glyph unicode="&#xb8;" horiz-adv-x="509" d="M-8 -420l61 60q31 -59 103 -60q123 0 123 129q0 37 -28 57.5t-55.5 25.5t-27.5 7l51 199h90l-24 -117q0 -2 15 -8t37.5 -16.5t46.5 -26.5t40 -46t16 -69q0 -100 -68.5 -164.5t-197.5 -64.5q-68 0 -113 23.5t-57 47.5z" />
<glyph unicode="&#xb9;" horiz-adv-x="845" d="M317 1370l281 166h199l-150 -1065h-246l123 866l-170 -106z" />
<glyph unicode="&#xba;" horiz-adv-x="899" d="M197 946q0 209 114.5 331t333.5 122q170 0 256 -84t86 -236q0 -207 -119.5 -328.5t-330.5 -121.5q-168 0 -254 83t-86 234zM446 893q0 -162 105 -162q184 0 184 402q0 159 -104 159q-184 0 -185 -399z" />
<glyph unicode="&#xbb;" horiz-adv-x="1097" d="M147 195l228 309l-137 309l81 80l308 -391l-416 -381zM526 195l228 309l-138 309l82 80l308 -391l-416 -381z" />
<glyph unicode="&#xbc;" horiz-adv-x="1648" d="M317 1370l281 166h199l-150 -1065h-246l123 866l-170 -106zM449 -18l866 1239l100 -62l-864 -1241zM811 -254l2 115q135 211 289 721l233 -29q-109 -336 -360 -674h231l13 80l131 432h184l-72 -512h86l-14 -106l-90 -25l-37 -260h-254l35 258h-377z" />
<glyph unicode="&#xbd;" horiz-adv-x="1726" d="M317 1370l281 166h199l-150 -1065h-246l123 866l-170 -106zM449 -18l866 1239l100 -62l-864 -1241zM895 -512l29 195q63 25 141 77t158 128.5t133 185t53 223.5q0 82 -29.5 112.5t-95.5 30.5q-33 0 -84 -20.5t-86 -40.5l-35 -21l-18 117q152 98 297 98q158 0 238.5 -80.5 t80.5 -205.5q0 -291 -446 -566h377l-33 -233h-680z" />
<glyph unicode="&#xbe;" horiz-adv-x="1734" d="M164 551l67 111q8 -8 24.5 -21.5t69 -36t107.5 -22.5q203 0 203 282q0 102 -74 103q-35 0 -72 -33l-12 -12l-63 86l284 292h-362l39 236h575l-22 -158l-291 -295q104 -2 175 -72.5t71 -191.5q0 -174 -129 -272t-295 -98q-98 0 -172 25.5t-99 50.5zM535 -18l866 1239 l100 -62l-864 -1241zM897 -254l2 115q135 211 289 721l233 -29q-109 -336 -360 -674h231l13 80l131 432h184l-72 -512h86l-14 -106l-90 -25l-37 -260h-254l35 258h-377z" />
<glyph unicode="&#xbf;" horiz-adv-x="911" d="M39 -186q0 131 53 216t129 129t154 84t135 111.5t63 180.5l113 8q-4 -104 -26.5 -176t-54.5 -110t-69.5 -65.5t-73.5 -55t-66.5 -65.5t-49 -110t-18.5 -176q0 -180 174 -180q45 0 86 19.5t59 39.5l19 21l61 -97q-4 -4 -10 -13t-29.5 -29.5t-52.5 -37t-77 -30t-103 -13.5 q-197 0 -306.5 89.5t-109.5 259.5zM506 866q-1 85 69 148q51 43 119 43q66 0 109 -43q33 -39 33 -96q0 -90 -68 -148q-55 -43 -120.5 -43t-106.5 43q-35 41 -35 96z" />
<glyph unicode="&#xc0;" horiz-adv-x="1245" d="M39 0l629 1331h313l227 -1331h-299l-61 373h-463l-174 -373h-172zM442 502h385l-96 626h-2zM563 1716l228 72l131 -301l-131 -35z" />
<glyph unicode="&#xc1;" horiz-adv-x="1245" d="M39 0l629 1331h313l227 -1331h-299l-61 373h-463l-174 -373h-172zM442 502h385l-96 626h-2zM719 1460l186 312l213 -64l-284 -266z" />
<glyph unicode="&#xc2;" horiz-adv-x="1245" d="M39 0l629 1331h313l227 -1331h-299l-61 373h-463l-174 -373h-172zM442 502h385l-96 626h-2zM551 1569l235 250h144l164 -250l-70 -92l-188 174l-240 -174z" />
<glyph unicode="&#xc3;" horiz-adv-x="1245" d="M39 0l629 1331h313l227 -1331h-299l-61 373h-463l-174 -373h-172zM442 502h385l-96 626h-2zM469 1567q4 8 12 20t35 44t56.5 56.5t76.5 44t96 19.5q80 0 166 -48t133 -48q33 0 61 16.5t39 32.5l11 16l64 -71q-2 -6 -8.5 -17.5t-29 -39t-49 -49t-71.5 -39t-94 -17.5 q-68 0 -158 49t-147 49q-33 0 -65 -22.5t-48 -45.5l-17 -24z" />
<glyph unicode="&#xc4;" horiz-adv-x="1245" d="M39 0l629 1331h313l227 -1331h-299l-61 373h-463l-174 -373h-172zM442 502h385l-96 626h-2zM506 1589q0 76 57 129q45 35 101 35q53 0 88 -35q29 -39 28 -84q0 -76 -59 -129q-45 -37 -98.5 -37t-87.5 37q-29 35 -29 84zM887 1589q0 76 57 129q45 35 98 35q51 0 91 -35 q29 -39 28 -84q0 -76 -59 -129q-45 -37 -100.5 -37t-86.5 37q-29 35 -28 84z" />
<glyph unicode="&#xc5;" horiz-adv-x="1245" d="M39 0l629 1331h313l227 -1331h-299l-61 373h-463l-174 -373h-172zM442 502h385l-96 626h-2zM618 1585q0 117 69 185.5t175 68.5q84 0 137.5 -50t53.5 -136q0 -115 -69 -184.5t-175 -69.5q-88 0 -139.5 49t-51.5 137zM713 1597q0 -53 30.5 -81.5t77.5 -28.5q63 0 101.5 41 t38.5 117q0 53 -31 80.5t-78 27.5q-61 0 -100 -40t-39 -116z" />
<glyph unicode="&#xc6;" horiz-adv-x="1683" d="M-29 0l928 1331h873l-19 -147h-516l-61 -439h454l-20 -143h-455l-63 -455h544l-22 -147h-826l54 385h-430l-262 -385h-179zM500 516h360l94 668h-14z" />
<glyph unicode="&#xc7;" horiz-adv-x="1179" d="M156 524q0 365 194.5 596.5t517.5 231.5q94 0 191.5 -29t147.5 -56l50 -28l-43 -149q-180 109 -331 108q-190 0 -306 -168t-116 -534q0 -365 307 -365q61 0 119.5 18.5t98.5 45t70.5 54t45.5 46.5l14 18l74 -98q-6 -10 -17.5 -25.5t-54.5 -56.5t-93 -71.5t-136 -57.5 t-180 -27l-21 -96q0 -2 15.5 -8t38 -16.5t46 -26.5t40 -46t16.5 -69q0 -100 -68.5 -164.5t-197.5 -64.5q-68 0 -113 23.5t-57 47.5l-13 23l62 60q31 -59 102 -60q123 0 123 129q0 37 -27.5 57.5t-55.5 25.5t-28 7l47 183q-223 23 -342.5 166t-119.5 376z" />
<glyph unicode="&#xc8;" d="M158 0l186 1331h799l-21 -147h-516l-61 -439h456l-22 -143h-453l-63 -455h543l-21 -147h-827zM528 1716l228 72l131 -301l-131 -35z" />
<glyph unicode="&#xc9;" d="M158 0l186 1331h799l-21 -147h-516l-61 -439h456l-22 -143h-453l-63 -455h543l-21 -147h-827zM684 1460l186 312l213 -64l-284 -266z" />
<glyph unicode="&#xca;" d="M158 0l186 1331h799l-21 -147h-516l-61 -439h456l-22 -143h-453l-63 -455h543l-21 -147h-827zM518 1569l236 250h143l164 -250l-70 -92l-188 174l-240 -174z" />
<glyph unicode="&#xcb;" d="M158 0l186 1331h799l-21 -147h-516l-61 -439h456l-22 -143h-453l-63 -455h543l-21 -147h-827zM440 1589q1 76 58 129q45 35 100 35q53 0 88 -35q29 -39 29 -84q0 -76 -60 -129q-45 -37 -98 -37t-88 37q-29 35 -29 84zM821 1589q1 76 58 129q45 35 98 35q51 0 90 -35 q29 -39 29 -84q0 -76 -60 -129q-45 -37 -100 -37t-86 37q-29 35 -29 84z" />
<glyph unicode="&#xcc;" horiz-adv-x="600" d="M158 0l186 1331h283l-187 -1331h-282zM231 1716l228 72l131 -301l-131 -35z" />
<glyph unicode="&#xcd;" horiz-adv-x="600" d="M158 0l186 1331h283l-187 -1331h-282zM387 1460l186 312l213 -64l-284 -266z" />
<glyph unicode="&#xce;" horiz-adv-x="600" d="M158 0l186 1331h283l-187 -1331h-282zM223 1569l236 250h143l164 -250l-70 -92l-188 174l-240 -174z" />
<glyph unicode="&#xcf;" horiz-adv-x="600" d="M158 0l186 1331h283l-187 -1331h-282zM174 1589q0 76 57 129q45 35 101 35q53 0 88 -35q29 -39 29 -84q0 -76 -60 -129q-45 -37 -98 -37t-88 37q-29 35 -29 84zM555 1589q0 76 57 129q45 35 99 35q51 0 90 -35q29 -39 28 -84q0 -76 -59 -129q-45 -37 -100.5 -37t-85.5 37 q-29 35 -29 84z" />
<glyph unicode="&#xd0;" horiz-adv-x="1347" d="M127 592l18 135h113l86 604h453q272 0 415.5 -136t143.5 -402q0 -375 -191.5 -584t-552.5 -209h-454l82 592h-113zM461 145h174q418 0 418 701q0 176 -68 258t-209 82h-170l-65 -459h293l-19 -135h-293z" />
<glyph unicode="&#xd1;" horiz-adv-x="1333" d="M158 0l186 1331h293l432 -903h6l-2 92l113 811h176l-186 -1331h-222l-493 999h-4v-118l-123 -881h-176zM539 1567q4 8 12 20t34.5 44t56.5 56.5t77 44t96 19.5q80 0 166 -48t133 -48q33 0 60.5 16.5t38.5 32.5l12 16l63 -71q-2 -6 -8 -17.5t-28.5 -39t-49 -49t-72 -39 t-94.5 -17.5q-68 0 -158 49t-147 49q-33 0 -64.5 -22.5t-48.5 -45.5l-16 -24z" />
<glyph unicode="&#xd2;" horiz-adv-x="1357" d="M156 530q0 367 184 594.5t512 227.5q270 0 402 -153.5t132 -395.5q0 -371 -199.5 -598.5t-500.5 -227.5q-252 0 -391 147.5t-139 405.5zM455 461q0 -158 63.5 -248t181.5 -90q174 0 279.5 176t105.5 563q0 156 -61 249t-186 93q-383 0 -383 -743zM610 1716l228 72 l131 -301l-131 -35z" />
<glyph unicode="&#xd3;" horiz-adv-x="1357" d="M156 530q0 367 184 594.5t512 227.5q270 0 402 -153.5t132 -395.5q0 -371 -199.5 -598.5t-500.5 -227.5q-252 0 -391 147.5t-139 405.5zM455 461q0 -158 63.5 -248t181.5 -90q174 0 279.5 176t105.5 563q0 156 -61 249t-186 93q-383 0 -383 -743zM766 1460l186 312 l213 -64l-284 -266z" />
<glyph unicode="&#xd4;" horiz-adv-x="1357" d="M156 530q0 367 184 594.5t512 227.5q270 0 402 -153.5t132 -395.5q0 -371 -199.5 -598.5t-500.5 -227.5q-252 0 -391 147.5t-139 405.5zM455 461q0 -158 63.5 -248t181.5 -90q174 0 279.5 176t105.5 563q0 156 -61 249t-186 93q-383 0 -383 -743zM602 1569l236 250h143 l164 -250l-70 -92l-188 174l-240 -174z" />
<glyph unicode="&#xd5;" horiz-adv-x="1357" d="M156 530q0 367 184 594.5t512 227.5q270 0 402 -153.5t132 -395.5q0 -371 -199.5 -598.5t-500.5 -227.5q-252 0 -391 147.5t-139 405.5zM455 461q0 -158 63.5 -248t181.5 -90q174 0 279.5 176t105.5 563q0 156 -61 249t-186 93q-383 0 -383 -743zM516 1567q4 8 12.5 20 t35 44t56 56.5t76.5 44t97 19.5q80 0 165.5 -48t133.5 -48q33 0 60.5 16.5t38.5 32.5l11 16l64 -71q-2 -6 -8.5 -17.5t-29 -39t-49 -49t-71.5 -39t-94 -17.5q-68 0 -158 49t-147 49q-33 0 -66 -22.5t-48 -45.5l-15 -24z" />
<glyph unicode="&#xd6;" horiz-adv-x="1357" d="M156 530q0 367 184 594.5t512 227.5q270 0 402 -153.5t132 -395.5q0 -371 -199.5 -598.5t-500.5 -227.5q-252 0 -391 147.5t-139 405.5zM455 461q0 -158 63.5 -248t181.5 -90q174 0 279.5 176t105.5 563q0 156 -61 249t-186 93q-383 0 -383 -743zM553 1589q0 76 57 129 q45 35 101 35q53 0 88 -35q29 -39 28 -84q0 -76 -59 -129q-47 -37 -98 -37q-55 0 -88 37q-29 35 -29 84zM934 1589q0 76 57 129q45 35 99 35q51 0 90 -35q29 -39 28 -84q0 -76 -59 -129q-47 -37 -100 -37q-55 0 -86 37q-29 35 -29 84z" />
<glyph unicode="&#xd7;" horiz-adv-x="866" d="M150 391l274 262l-201 265l115 118l205 -270l280 270l80 -118l-274 -265l200 -262l-116 -119l-203 267l-279 -267z" />
<glyph unicode="&#xd8;" horiz-adv-x="1357" d="M156 530q0 367 184 594.5t512 227.5q141 0 256 -49l104 184l82 -23l-114 -202q206 -142 206 -459q0 -371 -199.5 -598.5t-500.5 -227.5q-111 0 -213 33l-129 -229l-82 22l135 242q-242 135 -241 485zM455 461q0 -141 49 -228l506 895q-63 76 -172 76q-383 0 -383 -743z M561 166q55 -43 139 -43q174 0 279.5 176t105.5 563q0 100 -28 182z" />
<glyph unicode="&#xd9;" horiz-adv-x="1257" d="M199 375q0 57 8 108l119 848h284l-110 -784q-12 -86 -13 -154q0 -137 50.5 -198.5t154.5 -61.5q137 0 217 100.5t109 313.5l110 784h175l-119 -848q-72 -506 -559 -506q-213 0 -319.5 103.5t-106.5 294.5zM647 1716l227 72l132 -301l-132 -35z" />
<glyph unicode="&#xda;" horiz-adv-x="1257" d="M199 375q0 57 8 108l119 848h284l-110 -784q-12 -86 -13 -154q0 -137 50.5 -198.5t154.5 -61.5q137 0 217 100.5t109 313.5l110 784h175l-119 -848q-72 -506 -559 -506q-213 0 -319.5 103.5t-106.5 294.5zM739 1460l187 312l213 -64l-285 -266z" />
<glyph unicode="&#xdb;" horiz-adv-x="1257" d="M199 375q0 57 8 108l119 848h284l-110 -784q-12 -86 -13 -154q0 -137 50.5 -198.5t154.5 -61.5q137 0 217 100.5t109 313.5l110 784h175l-119 -848q-72 -506 -559 -506q-213 0 -319.5 103.5t-106.5 294.5zM604 1569l236 250h143l164 -250l-70 -92l-188 174l-240 -174z " />
<glyph unicode="&#xdc;" horiz-adv-x="1257" d="M199 375q0 57 8 108l119 848h284l-110 -784q-12 -86 -13 -154q0 -137 50.5 -198.5t154.5 -61.5q137 0 217 100.5t109 313.5l110 784h175l-119 -848q-72 -506 -559 -506q-213 0 -319.5 103.5t-106.5 294.5zM553 1589q0 76 57 129q45 35 101 35q53 0 88 -35q29 -39 28 -84 q0 -76 -59 -129q-47 -37 -98 -37q-55 0 -88 37q-29 35 -29 84zM934 1589q0 76 57 129q45 35 99 35q51 0 90 -35q29 -39 28 -84q0 -76 -59 -129q-47 -37 -100 -37q-55 0 -86 37q-29 35 -29 84z" />
<glyph unicode="&#xdd;" horiz-adv-x="1071" d="M172 1331h317l209 -604h2l373 604h197l-512 -784l-74 -547h-285l72 514zM672 1460l186 312l213 -64l-285 -266z" />
<glyph unicode="&#xde;" horiz-adv-x="1150" d="M201 0l186 1331h283l-27 -184h135q422 0 422 -377q0 -147 -52 -264t-135 -182.5t-175.5 -99.5t-186.5 -34h-141l-27 -190h-282zM528 328h121q264 0 264 465q0 117 -42 165t-126 48h-120z" />
<glyph unicode="&#xdf;" horiz-adv-x="1196" d="M-172 -473l61 123q47 -39 105 -39q66 0 105.5 73t66.5 257l158 1132q70 483 507 483q168 0 262.5 -69.5t94.5 -194.5q0 -217 -234 -315q262 -80 263 -385q0 -311 -132.5 -463t-363.5 -152q-72 0 -123 11.5t-68 22.5l-16 12l49 129q37 -29 115 -29q104 0 178 128t74 384 q0 135 -54.5 188.5t-179.5 53.5l21 147q8 2 21.5 6t47 22.5t60 45t48 77t21.5 113.5q0 131 -118 131q-84 0 -129 -76.5t-72 -269.5l-158 -1132q-35 -248 -148.5 -362t-281.5 -114q-57 0 -102 15.5t-62 31.5z" />
<glyph unicode="&#xe0;" horiz-adv-x="1110" d="M121 399q0 279 147.5 463.5t380.5 184.5q84 0 140.5 -21.5t71.5 -42.5l16 -20h8l49 61h201l-144 -1024h-209l-32 90h-2q-2 -4 -7.5 -12t-27 -27.5t-49 -34t-76.5 -27t-109 -12.5q-162 0 -260 114t-98 308zM408 358q-1 -221 159 -221q49 0 92 20.5t60.5 38t28.5 33.5 l83 580q-41 82 -145 82q-131 0 -204.5 -133t-73.5 -400zM502 1440l227 71l131 -301l-131 -34z" />
<glyph unicode="&#xe1;" horiz-adv-x="1110" d="M121 399q0 279 147.5 463.5t380.5 184.5q84 0 140.5 -21.5t71.5 -42.5l16 -20h8l49 61h201l-144 -1024h-209l-32 90h-2q-2 -4 -7.5 -12t-27 -27.5t-49 -34t-76.5 -27t-109 -12.5q-162 0 -260 114t-98 308zM408 358q-1 -221 159 -221q49 0 92 20.5t60.5 38t28.5 33.5 l83 580q-41 82 -145 82q-131 0 -204.5 -133t-73.5 -400zM659 1184l187 311l213 -63l-285 -267z" />
<glyph unicode="&#xe2;" horiz-adv-x="1110" d="M121 399q0 279 147.5 463.5t380.5 184.5q84 0 140.5 -21.5t71.5 -42.5l16 -20h8l49 61h201l-144 -1024h-209l-32 90h-2q-2 -4 -7.5 -12t-27 -27.5t-49 -34t-76.5 -27t-109 -12.5q-162 0 -260 114t-98 308zM408 358q-1 -221 159 -221q49 0 92 20.5t60.5 38t28.5 33.5 l83 580q-41 82 -145 82q-131 0 -204.5 -133t-73.5 -400zM496 1292l235 250h143l164 -250l-69 -92l-189 174l-239 -174z" />
<glyph unicode="&#xe3;" horiz-adv-x="1110" d="M121 399q0 279 147.5 463.5t380.5 184.5q84 0 140.5 -21.5t71.5 -42.5l16 -20h8l49 61h201l-144 -1024h-209l-32 90h-2q-2 -4 -7.5 -12t-27 -27.5t-49 -34t-76.5 -27t-109 -12.5q-162 0 -260 114t-98 308zM406 1290q4 8 12 20.5t34.5 44t56.5 56.5t77 44.5t96 19.5 q80 0 166 -48.5t133 -48.5q33 0 60.5 16.5t38.5 32.5l12 17l63 -72q-2 -6 -8 -17.5t-28.5 -39t-49.5 -49t-72 -39t-94 -17.5q-68 0 -158 49.5t-147 49.5q-33 0 -64.5 -23.5t-48.5 -46.5l-16 -22zM408 358q-1 -221 159 -221q49 0 92 20.5t60.5 38t28.5 33.5l83 580 q-41 82 -145 82q-131 0 -204.5 -133t-73.5 -400z" />
<glyph unicode="&#xe4;" horiz-adv-x="1110" d="M121 399q0 279 147.5 463.5t380.5 184.5q84 0 140.5 -21.5t71.5 -42.5l16 -20h8l49 61h201l-144 -1024h-209l-32 90h-2q-2 -4 -7.5 -12t-27 -27.5t-49 -34t-76.5 -27t-109 -12.5q-162 0 -260 114t-98 308zM408 358q-1 -221 159 -221q49 0 92 20.5t60.5 38t28.5 33.5 l83 580q-41 82 -145 82q-131 0 -204.5 -133t-73.5 -400zM442 1313q1 76 58 129q45 35 100 35q53 0 88 -35q29 -39 29 -84q0 -76 -60 -129q-47 -37 -98 -37q-55 0 -88 37q-29 35 -29 84zM823 1313q1 76 58 129q45 35 98 35q51 0 90 -35q29 -39 29 -84q0 -76 -60 -129 q-47 -37 -100 -37q-55 0 -86 37q-29 35 -29 84z" />
<glyph unicode="&#xe5;" horiz-adv-x="1110" d="M121 399q0 279 147.5 463.5t380.5 184.5q84 0 140.5 -21.5t71.5 -42.5l16 -20h8l49 61h201l-144 -1024h-209l-32 90h-2q-2 -4 -7.5 -12t-27 -27.5t-49 -34t-76.5 -27t-109 -12.5q-162 0 -260 114t-98 308zM408 358q-1 -221 159 -221q49 0 92 20.5t60.5 38t28.5 33.5 l83 580q-41 82 -145 82q-131 0 -204.5 -133t-73.5 -400zM559 1309q0 117 68.5 185.5t175.5 68.5q84 0 137 -50.5t53 -136.5q0 -115 -68.5 -184.5t-174.5 -69.5q-88 0 -139.5 49.5t-51.5 137.5zM653 1321q0 -53 30 -82t79 -29q63 0 101 41t38 117q0 53 -30.5 81t-77.5 28 q-61 0 -100.5 -40t-39.5 -116z" />
<glyph unicode="&#xe6;" horiz-adv-x="1550" d="M121 399q0 281 153.5 464.5t411.5 183.5q84 0 145.5 -24t79.5 -47l19 -24h10q133 92 307 92q160 0 252 -81.5t92 -204.5q0 -74 -28.5 -131.5t-83 -91t-110.5 -56t-134 -32t-132 -12.5t-122 -3q-2 -29 -2 -90q0 -227 215 -227q70 0 131 28.5t87 56.5l26 27l82 -73 q-4 -6 -13.5 -18.5t-42 -43.5t-72.5 -53.5t-107.5 -42t-143.5 -19.5q-236 0 -353 138h-8q-2 -6 -8 -15.5t-27.5 -33t-50 -42t-79 -33t-109.5 -14.5q-180 0 -282.5 113t-102.5 309zM408 358q0 -221 170 -221q96 0 155 70q-35 82 -35 192q0 262 123 435q-47 57 -135 57 q-131 0 -204.5 -133t-73.5 -400zM989 549q61 0 104.5 3t95.5 17.5t84 38t53.5 68.5t21.5 108q-1 129 -134 129q-86 0 -145 -92t-80 -272z" />
<glyph unicode="&#xe7;" horiz-adv-x="913" d="M123 414q0 287 152.5 460t414.5 173q68 0 142.5 -24t115.5 -48l41 -25l-39 -131q-135 90 -229 90q-307 0 -307 -557q0 -125 56 -181t142 -56q72 0 130.5 31.5t80.5 63.5l23 32l88 -62q-4 -8 -11.5 -21.5t-38 -49t-68.5 -62.5t-105.5 -48.5t-147.5 -21.5h-12l-21 -96 q0 -2 15.5 -8t38 -16.5t46 -26.5t40 -46t16.5 -69q0 -100 -68.5 -164.5t-197.5 -64.5q-68 0 -113 23.5t-57 47.5l-12 23l61 60q31 -59 102 -60q123 0 123 129q0 37 -27.5 57.5t-55 25.5t-27.5 7l47 187q-160 27 -249 137t-89 291z" />
<glyph unicode="&#xe8;" horiz-adv-x="970" d="M121 399q0 303 153.5 474t395.5 171q160 0 252 -81.5t92 -204.5q0 -74 -29 -131.5t-83 -91t-110.5 -56t-134 -32t-132 -12.5t-122.5 -3q-2 -29 -2 -90q0 -227 215 -227q70 0 131.5 28.5t87.5 56.5l25 27l82 -73q-4 -6 -13 -18.5t-42 -43.5t-73 -53.5t-107.5 -42 t-143.5 -19.5q-199 0 -320.5 105.5t-121.5 316.5zM412 549q61 0 104 3t95.5 17.5t84 38t53 68.5t21.5 108q0 129 -133 129q-86 0 -145.5 -92t-79.5 -272zM428 1440l227 71l131 -301l-131 -34z" />
<glyph unicode="&#xe9;" horiz-adv-x="970" d="M121 399q0 303 153.5 474t395.5 171q160 0 252 -81.5t92 -204.5q0 -74 -29 -131.5t-83 -91t-110.5 -56t-134 -32t-132 -12.5t-122.5 -3q-2 -29 -2 -90q0 -227 215 -227q70 0 131.5 28.5t87.5 56.5l25 27l82 -73q-4 -6 -13 -18.5t-42 -43.5t-73 -53.5t-107.5 -42 t-143.5 -19.5q-199 0 -320.5 105.5t-121.5 316.5zM412 549q61 0 104 3t95.5 17.5t84 38t53 68.5t21.5 108q0 129 -133 129q-86 0 -145.5 -92t-79.5 -272zM586 1184l186 311l213 -63l-285 -267z" />
<glyph unicode="&#xea;" horiz-adv-x="970" d="M121 399q0 303 153.5 474t395.5 171q160 0 252 -81.5t92 -204.5q0 -74 -29 -131.5t-83 -91t-110.5 -56t-134 -32t-132 -12.5t-122.5 -3q-2 -29 -2 -90q0 -227 215 -227q70 0 131.5 28.5t87.5 56.5l25 27l82 -73q-4 -6 -13 -18.5t-42 -43.5t-73 -53.5t-107.5 -42 t-143.5 -19.5q-199 0 -320.5 105.5t-121.5 316.5zM412 549q61 0 104 3t95.5 17.5t84 38t53 68.5t21.5 108q0 129 -133 129q-86 0 -145.5 -92t-79.5 -272zM424 1292l235 250h144l164 -250l-70 -92l-188 174l-240 -174z" />
<glyph unicode="&#xeb;" horiz-adv-x="970" d="M121 399q0 303 153.5 474t395.5 171q160 0 252 -81.5t92 -204.5q0 -74 -29 -131.5t-83 -91t-110.5 -56t-134 -32t-132 -12.5t-122.5 -3q-2 -29 -2 -90q0 -227 215 -227q70 0 131.5 28.5t87.5 56.5l25 27l82 -73q-4 -6 -13 -18.5t-42 -43.5t-73 -53.5t-107.5 -42 t-143.5 -19.5q-199 0 -320.5 105.5t-121.5 316.5zM369 1313q0 76 57 129q45 35 100 35q53 0 88 -35q29 -39 29 -84q0 -76 -59 -129q-47 -37 -99 -37q-55 0 -88 37q-29 35 -28 84zM412 549q61 0 104 3t95.5 17.5t84 38t53 68.5t21.5 108q0 129 -133 129q-86 0 -145.5 -92 t-79.5 -272zM750 1313q0 76 57 129q45 35 98 35q51 0 90 -35q29 -39 29 -84q0 -76 -59 -129q-47 -37 -101 -37q-55 0 -86 37q-29 35 -28 84z" />
<glyph unicode="&#xec;" horiz-adv-x="509" d="M119 0l143 1024h273l-144 -1024h-272zM164 1440l227 71l131 -301l-131 -34z" />
<glyph unicode="&#xed;" horiz-adv-x="509" d="M119 0l143 1024h273l-144 -1024h-272zM322 1184l186 311l213 -63l-285 -267z" />
<glyph unicode="&#xee;" horiz-adv-x="509" d="M119 0l143 1024h273l-144 -1024h-272zM168 1292l235 250h144l164 -250l-70 -92l-188 174l-240 -174z" />
<glyph unicode="&#xef;" horiz-adv-x="509" d="M113 1313q0 76 57 129q45 35 100 35q53 0 88 -35q29 -39 29 -84q0 -76 -59 -129q-45 -37 -98.5 -37t-88.5 37q-29 35 -28 84zM119 0l143 1024h273l-144 -1024h-272zM494 1313q0 76 57 129q45 35 98 35q51 0 90 -35q29 -39 29 -84q0 -76 -59 -129q-45 -37 -100.5 -37 t-86.5 37q-29 35 -28 84z" />
<glyph unicode="&#xf0;" horiz-adv-x="1089" d="M123 401q0 315 149.5 479t382.5 164q94 0 174 -43q-33 150 -122 281l-211 -111l-27 86l180 95q-47 49 -114 100l131 76q80 -43 139 -94l172 90l27 -86l-132 -70q229 -252 230 -651q0 -61 -6 -125q-31 -297 -175.5 -456t-385.5 -159q-203 0 -307.5 120t-104.5 304z M403 338q0 -229 158 -229q254 0 254 575q0 227 -158 227q-254 0 -254 -573z" />
<glyph unicode="&#xf1;" horiz-adv-x="1093" d="M119 0l143 1024h219l25 -82h6q10 12 29.5 28.5t96.5 45t169 28.5q281 0 280 -264q0 -40 -6 -86l-96 -694h-272q84 610 94 672q6 43 6 76q0 72 -29.5 99t-95.5 27q-111 0 -184 -73l-113 -801h-272zM342 1290q4 8 12 20.5t35 44t56.5 56.5t76.5 44.5t96 19.5 q80 0 166 -48.5t134 -48.5q33 0 60.5 16.5t38.5 32.5l11 17l64 -72q-2 -6 -8.5 -17.5t-29 -39t-49 -49t-71.5 -39t-94 -17.5q-68 0 -158 49.5t-147 49.5q-33 0 -65 -23.5t-48 -46.5l-16 -22z" />
<glyph unicode="&#xf2;" horiz-adv-x="1075" d="M123 399q0 295 148.5 471.5t412.5 176.5q193 0 302.5 -109.5t109.5 -312.5q0 -295 -154 -471.5t-410 -176.5q-190 0 -299.5 110t-109.5 312zM406 326q0 -213 155 -213q252 0 252 585q0 211 -156 211q-252 0 -251 -583zM426 1440l227 71l131 -301l-131 -34z" />
<glyph unicode="&#xf3;" horiz-adv-x="1075" d="M123 399q0 295 148.5 471.5t412.5 176.5q193 0 302.5 -109.5t109.5 -312.5q0 -295 -154 -471.5t-410 -176.5q-190 0 -299.5 110t-109.5 312zM406 326q0 -213 155 -213q252 0 252 585q0 211 -156 211q-252 0 -251 -583zM584 1184l186 311l213 -63l-285 -267z" />
<glyph unicode="&#xf4;" horiz-adv-x="1075" d="M123 399q0 295 148.5 471.5t412.5 176.5q193 0 302.5 -109.5t109.5 -312.5q0 -295 -154 -471.5t-410 -176.5q-190 0 -299.5 110t-109.5 312zM406 326q0 -213 155 -213q252 0 252 585q0 211 -156 211q-252 0 -251 -583zM420 1292l235 250h144l164 -250l-70 -92l-188 174 l-240 -174z" />
<glyph unicode="&#xf5;" horiz-adv-x="1075" d="M123 399q0 295 148.5 471.5t412.5 176.5q193 0 302.5 -109.5t109.5 -312.5q0 -295 -154 -471.5t-410 -176.5q-190 0 -299.5 110t-109.5 312zM328 1290q4 8 12 20.5t34.5 44t56.5 56.5t77 44.5t96 19.5q80 0 166 -48.5t133 -48.5q33 0 60.5 16.5t38.5 32.5l12 17l63 -72 q-2 -6 -8 -17.5t-28.5 -39t-49 -49t-72 -39t-94.5 -17.5q-68 0 -157.5 49.5t-147.5 49.5q-33 0 -64.5 -23.5t-47.5 -46.5l-17 -22zM406 326q0 -213 155 -213q252 0 252 585q0 211 -156 211q-252 0 -251 -583z" />
<glyph unicode="&#xf6;" horiz-adv-x="1075" d="M123 399q0 295 148.5 471.5t412.5 176.5q193 0 302.5 -109.5t109.5 -312.5q0 -295 -154 -471.5t-410 -176.5q-190 0 -299.5 110t-109.5 312zM367 1313q0 76 57 129q45 35 100 35q53 0 88 -35q29 -39 29 -84q0 -76 -59 -129q-45 -37 -98.5 -37t-88.5 37q-29 35 -28 84z M406 326q0 -213 155 -213q252 0 252 585q0 211 -156 211q-252 0 -251 -583zM748 1313q0 76 57 129q45 35 98 35q51 0 90 -35q29 -39 29 -84q0 -76 -59 -129q-45 -37 -100.5 -37t-86.5 37q-29 35 -28 84z" />
<glyph unicode="&#xf7;" d="M129 467l21 151h950l-21 -151h-950zM393 131q0 85 70 148q51 43 119 43q66 0 108 -43q33 -39 33 -97q0 -88 -68 -147q-55 -43 -120 -43q-68 0 -107 43q-35 41 -35 96zM502 905q-1 85 69 148q51 43 119 43q66 0 109 -43q33 -39 32 -97q0 -88 -67 -147q-55 -43 -120.5 -43 t-106.5 43q-35 41 -35 96z" />
<glyph unicode="&#xf8;" horiz-adv-x="1083" d="M96 -352l203 385q-176 106 -176 366q0 295 148.5 471.5t412.5 176.5q77 0 141 -19l160 303l115 -22l-172 -326q168 -110 168 -358q0 -295 -154 -471.5t-410 -176.5q-68 0 -129 17l-194 -369zM406 326q0 -46 6 -80l336 637q-38 26 -91 26q-252 0 -251 -583zM477 133 q33 -20 84 -20q252 -1 252 585q0 25 -4 62z" />
<glyph unicode="&#xf9;" horiz-adv-x="1093" d="M150 242q0 40 6 86l98 696h272l-90 -639q-8 -51 -8 -100q0 -76 28.5 -107t88.5 -31q49 0 96 19.5t70 39.5l22 19l111 799h272l-143 -1024h-219l-27 90h-4q-4 -4 -10 -12t-33 -27.5t-57.5 -34t-82 -27t-110.5 -12.5q-281 0 -280 265zM463 1440l227 71l131 -301l-131 -34z " />
<glyph unicode="&#xfa;" horiz-adv-x="1093" d="M150 242q0 40 6 86l98 696h272l-90 -639q-8 -51 -8 -100q0 -76 28.5 -107t88.5 -31q49 0 96 19.5t70 39.5l22 19l111 799h272l-143 -1024h-219l-27 90h-4q-4 -4 -10 -12t-33 -27.5t-57.5 -34t-82 -27t-110.5 -12.5q-281 0 -280 265zM621 1184l186 311l213 -63l-285 -267z " />
<glyph unicode="&#xfb;" horiz-adv-x="1093" d="M150 242q0 40 6 86l98 696h272l-90 -639q-8 -51 -8 -100q0 -76 28.5 -107t88.5 -31q49 0 96 19.5t70 39.5l22 19l111 799h272l-143 -1024h-219l-27 90h-4q-4 -4 -10 -12t-33 -27.5t-57.5 -34t-82 -27t-110.5 -12.5q-281 0 -280 265zM457 1292l235 250h144l163 -250 l-69 -92l-189 174l-239 -174z" />
<glyph unicode="&#xfc;" horiz-adv-x="1093" d="M150 242q0 40 6 86l98 696h272l-90 -639q-8 -51 -8 -100q0 -76 28.5 -107t88.5 -31q49 0 96 19.5t70 39.5l22 19l111 799h272l-143 -1024h-219l-27 90h-4q-4 -4 -10 -12t-33 -27.5t-57.5 -34t-82 -27t-110.5 -12.5q-281 0 -280 265zM403 1313q1 76 58 129q45 35 100 35 q53 0 88 -35q29 -39 29 -84q0 -76 -60 -129q-45 -37 -98 -37t-88 37q-29 35 -29 84zM784 1313q1 76 58 129q45 35 98 35q51 0 90 -35q29 -39 29 -84q0 -76 -60 -129q-45 -37 -100 -37t-86 37q-29 35 -29 84z" />
<glyph unicode="&#xfd;" horiz-adv-x="999" d="M-18 -504l43 160q47 -23 100 -23q94 0 162.5 74t163.5 252l-285 1065h328l149 -725l313 725h168l-503 -1047q-125 -258 -235 -385t-251 -127q-47 0 -86 8.5t-53 15.5zM594 1184l186 311l213 -63l-284 -267z" />
<glyph unicode="&#xfe;" horiz-adv-x="1107" d="M43 -520l72 520l215 1528l274 16l-84 -596h10q6 10 22.5 26.5t81 43t146.5 26.5q160 0 256.5 -112.5t96.5 -302.5q0 -279 -141.5 -465.5t-375.5 -186.5q-137 0 -223 62l-78 -551zM416 197q31 -63 149 -64q281 0 281 545q0 209 -162 209q-51 0 -97 -26.5t-63.5 -46 t-25.5 -34.5z" />
<glyph unicode="&#xff;" horiz-adv-x="999" d="M-18 -504l43 160q47 -23 100 -23q94 0 162.5 74t163.5 252l-285 1065h328l149 -725l313 725h168l-503 -1047q-125 -258 -235 -385t-251 -127q-47 0 -86 8.5t-53 15.5zM377 1313q0 76 57 129q45 35 101 35q53 0 88 -35q29 -39 28 -84q0 -76 -59 -129q-45 -37 -98 -37 q-55 0 -88 37q-29 35 -29 84zM758 1313q0 76 57 129q45 35 98 35q51 0 91 -35q29 -39 28 -84q0 -76 -59 -129q-47 -37 -101 -37q-55 0 -86 37q-29 35 -28 84z" />
<glyph unicode="&#x152;" horiz-adv-x="1902" d="M156 530q0 367 184 594.5t512 227.5q186 0 311 -80l8 59h801l-20 -147h-516l-50 -353v-28q0 -10 -1 -29.5t-1 -28.5h445l-21 -143h-440q-12 -74 -33 -131l-45 -324h545l-20 -147h-830l6 49q-139 -72 -305 -72q-252 0 -391 147.5t-139 405.5zM455 461q0 -158 63.5 -248 t181.5 -90q289 0 363 434l10 76v10q12 98 12 219q0 156 -61 249t-186 93q-383 0 -383 -743z" />
<glyph unicode="&#x153;" horiz-adv-x="1652" d="M123 399q0 295 148.5 471.5t412.5 176.5q207 0 317 -129q139 127 351 126q160 0 252 -81.5t92 -204.5q0 -74 -29 -131.5t-83 -91t-110.5 -56t-134 -32t-132 -12.5t-122.5 -3q-2 -29 -2 -90q0 -227 215 -227q70 0 131.5 28.5t87.5 56.5l25 27l82 -73q-4 -6 -13 -18.5 t-42 -43.5t-73 -53.5t-107.5 -42t-143.5 -19.5q-231 0 -348 132q-147 -131 -365 -132q-190 0 -299.5 110t-109.5 312zM406 326q0 -213 155 -213q252 0 252 585q0 211 -156 211q-252 0 -251 -583zM1094 549q61 0 104 3t95.5 17.5t84 38t53 68.5t21.5 108q0 129 -133 129 q-86 0 -145.5 -92t-79.5 -272z" />
<glyph unicode="&#x178;" horiz-adv-x="1071" d="M172 1331h317l209 -604h2l373 604h197l-512 -784l-74 -547h-285l72 514zM469 1589q0 76 57 129q45 35 101 35q53 0 88 -35q29 -39 28 -84q0 -76 -59 -129q-47 -37 -98 -37q-53 0 -88 37q-29 35 -29 84zM850 1589q0 76 57 129q45 35 99 35q51 0 90 -35q29 -39 28 -84 q0 -76 -59 -129q-45 -37 -100.5 -37t-85.5 37q-29 35 -29 84z" />
<glyph unicode="&#x2c6;" horiz-adv-x="731" d="M274 1292l236 250h143l164 -250l-69 -92l-189 174l-240 -174z" />
<glyph unicode="&#x2dc;" horiz-adv-x="876" d="M254 1290q4 8 12 20.5t35 44t56.5 56.5t76.5 44.5t96 19.5q80 0 166 -48.5t133 -48.5q33 0 61 16.5t39 32.5l11 17l64 -72q-2 -6 -8.5 -17.5t-29 -39t-49 -49t-71.5 -39t-94 -17.5q-68 0 -158 49.5t-148 49.5q-33 0 -64.5 -23.5t-47.5 -46.5l-17 -22z" />
<glyph unicode="&#x2000;" horiz-adv-x="919" />
<glyph unicode="&#x2001;" horiz-adv-x="1839" />
<glyph unicode="&#x2002;" horiz-adv-x="919" />
<glyph unicode="&#x2003;" horiz-adv-x="1839" />
<glyph unicode="&#x2004;" horiz-adv-x="613" />
<glyph unicode="&#x2005;" horiz-adv-x="459" />
<glyph unicode="&#x2006;" horiz-adv-x="306" />
<glyph unicode="&#x2007;" horiz-adv-x="306" />
<glyph unicode="&#x2008;" horiz-adv-x="229" />
<glyph unicode="&#x2009;" horiz-adv-x="367" />
<glyph unicode="&#x200a;" horiz-adv-x="102" />
<glyph unicode="&#x2010;" horiz-adv-x="681" d="M133 487l21 152h555l-21 -152h-555z" />
<glyph unicode="&#x2011;" horiz-adv-x="681" d="M133 487l21 152h555l-21 -152h-555z" />
<glyph unicode="&#x2012;" horiz-adv-x="681" d="M133 487l21 152h555l-21 -152h-555z" />
<glyph unicode="&#x2013;" d="M131 487l21 152h950l-21 -152h-950z" />
<glyph unicode="&#x2014;" horiz-adv-x="1388" d="M131 487l21 152h1265l-20 -152h-1266z" />
<glyph unicode="&#x2018;" horiz-adv-x="370" d="M184 1038q0 121 90.5 273.5t208.5 240.5l60 -75q-78 -61 -134.5 -146.5t-70.5 -163.5h10q61 0 96 -34q29 -35 29 -84q0 -74 -57 -127q-47 -37 -103 -37q-59 0 -92 37q-37 43 -37 116z" />
<glyph unicode="&#x2019;" horiz-adv-x="368" d="M162 958q78 61 134 145.5t71 162.5h-15q-57 0 -92 37q-29 31 -29 83q1 74 58 127q45 37 102.5 37t93.5 -37q37 -46 37 -116q0 -123 -90 -275.5t-211 -238.5z" />
<glyph unicode="&#x201a;" horiz-adv-x="368" d="M-10 -272q78 61 133 145t72 164h-17q-57 0 -92 35q-29 39 -29 84q1 74 60 127q43 37 102 36q55 0 92 -36q37 -43 37 -117q0 -121 -90 -274.5t-209 -239.5z" />
<glyph unicode="&#x201c;" horiz-adv-x="753" d="M184 1038q0 121 90.5 273.5t208.5 240.5l60 -75q-78 -61 -134.5 -146.5t-70.5 -163.5h10q61 0 96 -34q29 -35 29 -84q0 -74 -57 -127q-47 -37 -103 -37q-59 0 -92 37q-37 43 -37 116zM567 1038q0 121 90.5 273.5t208.5 240.5l60 -75q-78 -61 -134.5 -146.5t-70.5 -163.5 h10q61 0 96 -34q29 -35 29 -84q0 -74 -57 -127q-45 -37 -102.5 -37t-92.5 37q-37 43 -37 116z" />
<glyph unicode="&#x201d;" horiz-adv-x="753" d="M162 958q78 61 134 145.5t71 162.5h-15q-57 0 -92 37q-29 31 -29 83q1 74 58 127q45 37 102.5 37t93.5 -37q37 -46 37 -116q0 -123 -90 -275.5t-211 -238.5zM545 958q78 61 134 145.5t71 162.5h-15q-59 0 -92 37q-29 31 -29 83q1 74 58 127q45 37 102 37t94 -37 q37 -46 37 -116q0 -123 -90 -275.5t-211 -238.5z" />
<glyph unicode="&#x201e;" horiz-adv-x="753" d="M-10 -272q78 61 133 145t72 164h-17q-57 0 -92 35q-29 39 -29 84q1 74 60 127q43 37 102 36q55 0 92 -36q37 -43 37 -117q0 -121 -90 -274.5t-209 -239.5zM373 -272q78 61 133 145t72 164h-17q-57 0 -92 35q-29 39 -29 84q1 74 60 127q43 37 102 36q55 0 92 -36 q37 -43 37 -117q0 -121 -90 -274.5t-209 -239.5z" />
<glyph unicode="&#x2022;" horiz-adv-x="778" d="M215 635q0 133 104 231q78 63 185 64q102 0 166 -64q51 -63 51 -151q0 -135 -107 -230q-82 -66 -182 -65q-104 0 -166 65q-51 59 -51 150z" />
<glyph unicode="&#x2026;" horiz-adv-x="1656" d="M156 106q-1 85 69 148q53 43 119 43t109 -43q33 -39 32 -96q0 -88 -67 -148q-55 -43 -121 -43q-68 0 -107 43q-35 41 -34 96zM680 106q0 85 70 148q53 43 118.5 43t108.5 -43q33 -39 33 -96q0 -88 -68 -148q-55 -43 -121 -43q-68 0 -106 43q-35 41 -35 96zM1202 106 q0 85 70 148q51 43 119 43q66 0 108 -43q33 -39 33 -96q0 -88 -68 -148q-55 -43 -120.5 -43t-106.5 43q-35 41 -35 96z" />
<glyph unicode="&#x202f;" horiz-adv-x="367" />
<glyph unicode="&#x2039;" horiz-adv-x="720" d="M233 512l418 381l60 -76l-226 -309l138 -307l-80 -80z" />
<glyph unicode="&#x203a;" horiz-adv-x="720" d="M147 195l228 309l-137 309l81 80l308 -391l-416 -381z" />
<glyph unicode="&#x205f;" horiz-adv-x="459" />
<glyph unicode="&#x20ac;" horiz-adv-x="1163" d="M145 457l19 121h98q2 70 12 137l-90 10l17 121h96q119 504 614 504q88 0 169 -22.5t119 -45.5l38 -22l-49 -142q-125 86 -264 86q-137 0 -221.5 -80t-120.5 -278h471l-21 -141h-469q-4 -45 -8 -127h461l-21 -144h-442q2 -172 68.5 -244.5t189.5 -72.5q76 0 148.5 36.5 t106.5 73.5l34 37l39 -102q-4 -8 -14.5 -20.5t-46.5 -44t-78 -56.5t-113.5 -44.5t-149.5 -19.5q-219 0 -337.5 123t-135.5 344z" />
<glyph unicode="&#x2122;" horiz-adv-x="1630" d="M305 1421l17 115h632l-16 -113l-242 -2l-84 -602h-168l84 602h-223zM887 819l145 717h170l90 -571l275 571h164l-84 -717h-160l51 457l-223 -457h-148l-92 479l-78 -479h-110z" />
<glyph unicode="&#xe000;" horiz-adv-x="1025" d="M0 1025h1025v-1025h-1025v1025z" />
<glyph unicode="&#xfb01;" horiz-adv-x="1169" d="M-178 -473l61 123q47 -39 105 -39q66 0 105.5 72.5t64.5 257.5l131 925h-96l18 123l98 29l23 151q29 186 126 286.5t296 100.5q127 0 258 -104q47 39 110.5 39t100.5 -39q31 -40 30 -92q0 -84 -63 -143q-51 -39 -113 -39q-66 0 -100 41q-33 35 -33 92q0 14 4 39 q-84 66 -160 65q-88 0 -125.5 -55t-62.5 -221l-16 -115h260l-23 -158h-260l-131 -925q-68 -475 -428 -476q-57 0 -102 15.5t-62 31.5zM776 0l144 1024h272l-143 -1024h-273z" />
<glyph unicode="&#xfb02;" horiz-adv-x="1187" d="M-178 -473l61 123q47 -39 105 -39q66 0 105.5 72.5t64.5 257.5l131 925h-101l19 123l102 29l23 151q27 178 122 282.5t242 104.5q137 0 308 -69l6 41l274 16l-217 -1544h-272l188 1348q-154 72 -229 71q-63 0 -96 -57t-58 -223l-16 -115h256l-23 -158h-256l-131 -925 q-68 -475 -428 -476q-57 0 -102 15.5t-62 31.5z" />
<glyph unicode="&#xfb03;" horiz-adv-x="1917" d="M1527 0l143 1024h273l-144 -1024h-272zM1695 1311q-1 84 65 139q47 41 113 41q63 0 100 -39q31 -40 31 -92q0 -84 -64 -143q-51 -39 -112 -39q-66 0 -101 41q-33 35 -32 92zM526 -473l61 123q47 -39 105 -39q66 0 105.5 73t64.5 257l131 925h-101l19 123l102 29l23 151 q57 387 379 387q51 0 105 -17t84 -35l30 -17l-51 -117q-80 49 -138 49q-55 0 -85.5 -53t-55.5 -227l-16 -115h256l-23 -158h-256l-131 -925q-68 -475 -428 -476q-57 0 -102 15.5t-62 31.5zM-178 -473l61 123q47 -39 105 -39q66 0 105.5 73t64.5 257l131 925h-101l19 123 l102 29l23 151q57 387 379 387q51 0 105 -17t84 -35l30 -17l-51 -117q-80 49 -138 49q-55 0 -85.5 -53t-55.5 -227l-16 -115h256l-23 -158h-256l-131 -925q-68 -475 -428 -476q-57 0 -102 15.5t-62 31.5z" />
<glyph unicode="&#xfb04;" horiz-adv-x="1920" d="M1527 0l215 1528l274 16l-217 -1544h-272zM526 -473l61 123q47 -39 105 -39q66 0 105.5 73t64.5 257l131 925h-101l19 123l102 29l23 151q57 387 379 387q51 0 105 -17t84 -35l30 -17l-51 -117q-80 49 -138 49q-55 0 -85.5 -53t-55.5 -227l-16 -115h256l-23 -158h-256 l-131 -925q-68 -475 -428 -476q-57 0 -102 15.5t-62 31.5zM-178 -473l61 123q47 -39 105 -39q66 0 105.5 73t64.5 257l131 925h-101l19 123l102 29l23 151q57 387 379 387q51 0 105 -17t84 -35l30 -17l-51 -117q-80 49 -138 49q-55 0 -85.5 -53t-55.5 -227l-16 -115h256 l-23 -158h-256l-131 -925q-68 -475 -428 -476q-57 0 -102 15.5t-62 31.5z" />
</font>
</defs>
</svg>
