<?xml version="1.0" standalone="no"?>
<!DOCTYPE svg PUBLIC "-//W3C//DTD SVG 1.1//EN" "http://www.w3.org/Graphics/SVG/1.1/DTD/svg11.dtd" >
<svg xmlns="http://www.w3.org/2000/svg">
<metadata>
This is a custom SVG webfont generated by Font Squirrel.
Copyright   : Copyright c 2012 by Stairsfor All rights reserved
Designer    : Andrij Shevchenko
Foundry     : Stairsforcom
Foundry URL : httpstairsforcom
</metadata>
<defs>
<font id="ArsenalItalic" horiz-adv-x="1054" >
<font-face units-per-em="2048" ascent="1536" descent="-512" />
<missing-glyph horiz-adv-x="477" />
<glyph unicode=" "  horiz-adv-x="477" />
<glyph unicode="&#x09;" horiz-adv-x="477" />
<glyph unicode="&#xa0;" horiz-adv-x="477" />
<glyph unicode="!" horiz-adv-x="565" d="M201 61q0 49 39 84q31 25 67 25q39 0 64 -25q18 -20 18 -55q0 -49 -37 -84q-33 -25 -69 -24q-41 0 -61.5 24.5t-20.5 54.5zM301 434l94 932l23 170h166l-23 -170l-170 -932h-90z" />
<glyph unicode="&#x22;" horiz-adv-x="612" d="M227 1061l58 475l137 -4l-111 -471h-84zM516 1061l57 475l138 -4l-111 -471h-84z" />
<glyph unicode="#" horiz-adv-x="983" d="M164 446l12 84h180l93 267h-236l12 86h254l99 280l65 -20l-92 -260h215l90 258l68 -21l-84 -237h168l-15 -86h-182l-94 -267h239l-12 -84h-256l-98 -282l-68 20l90 262h-213l-90 -260l-65 21l84 239h-164zM428 530h215l92 267h-213z" />
<glyph unicode="$" horiz-adv-x="835" d="M115 262l61 72q2 -6 7 -14.5t25.5 -31t45.5 -39t66.5 -30.5t91.5 -14q127 0 193.5 65.5t66.5 155.5q0 63 -45 104t-108.5 66t-127 51.5t-108.5 80.5t-45 136q0 123 82.5 205t216.5 105l45 260h86l-23 -256q61 -4 118.5 -26t85.5 -41l28 -19l-27 -88q-102 90 -227 90 q-106 0 -172 -54.5t-66 -136.5q0 -63 46 -106t111.5 -67.5t131 -52.5t111.5 -83t46 -137q0 -131 -86 -225.5t-249 -112.5l-39 -221h-86l16 217q-59 4 -109.5 20.5t-79 38t-49 42t-27.5 33.5z" />
<glyph unicode="%" horiz-adv-x="1642" d="M227 899q0 203 105.5 331t277.5 128q127 0 201 -87.5t74 -232.5q0 -199 -105.5 -325.5t-277.5 -126.5q-133 0 -204 84t-71 229zM348 889q0 -102 42 -159.5t122 -57.5q111 0 181.5 99.5t70.5 283.5q0 102 -43 159.5t-123 57.5q-113 0 -181.5 -97.5t-68.5 -285.5zM485 25 l760 1288l84 -21l-758 -1288zM946 285q0 203 105.5 330.5t277.5 127.5q127 0 201 -87t74 -232q0 -199 -105.5 -326t-277.5 -127q-133 0 -204 84t-71 230zM1067 274q0 -102 42 -159.5t122 -57.5q111 0 181.5 99.5t70.5 283.5q0 102 -43 159.5t-123 57.5q-113 0 -181.5 -97 t-68.5 -286z" />
<glyph unicode="&#x26;" horiz-adv-x="1234" d="M141 299q0 156 92.5 254t223.5 137q-154 78 -154 264q0 176 113.5 286t300.5 110q63 0 125.5 -15.5t93.5 -31.5l31 -17l-29 -88q-84 59 -201 59q-135 0 -211.5 -87t-76.5 -232q0 -98 52 -153.5t117 -55.5h252l109 295h70l-43 -295h264l-13 -88h-264l-49 -358 q-8 -70 -8 -88q0 -70 26.5 -95.5t84.5 -25.5q37 0 72.5 6t52.5 13l18 7l-8 -82q-61 -39 -195 -38q-154 0 -184 116q-104 -117 -290.5 -116.5t-279 88.5t-92.5 231zM299 307q0 -104 62.5 -168.5t185.5 -64.5q170 0 248 133q4 44 8 67l49 367h-262q-111 -2 -201 -92t-90 -242z " />
<glyph unicode="'" horiz-adv-x="323" d="M227 1061l58 475l137 -4l-111 -471h-84z" />
<glyph unicode="(" horiz-adv-x="628" d="M233 295q0 141 19 262q25 178 78 339t110.5 264.5t111.5 182t89 113.5l35 35l72 -43q-10 -12 -29 -35.5t-70 -106.5t-94 -177.5t-90 -250t-70 -321.5q-23 -170 -22 -297q0 -176 31.5 -322.5t63.5 -203.5l32 -58l-82 -43q-8 8 -20.5 25.5t-44 78t-56.5 130.5t-44.5 185.5 t-19.5 242.5z" />
<glyph unicode=")" horiz-adv-x="628" d="M37 -324q10 12 28.5 36t69.5 108t94 178t90.5 248.5t69.5 320.5q20 152 21 291q0 111 -13.5 212t-31 167t-36 116t-31.5 72l-13 23l82 43q8 -8 20 -25.5t44 -78t56.5 -130t44 -185.5t19.5 -243q0 -141 -19 -262q-25 -178 -78 -338.5t-110 -264t-111.5 -182.5t-90.5 -114 l-36 -35z" />
<glyph unicode="*" horiz-adv-x="804" d="M190 1079l64 144l268 -162l15 381h137l-99 -381l320 162l20 -144l-329 -71l186 -283l-125 -90l-108 330l-203 -330l-98 90l264 279z" />
<glyph unicode="+" horiz-adv-x="835" d="M143 520l15 96h301l51 357h92l-51 -357h301l-14 -96h-299l-50 -356h-92l49 356h-303z" />
<glyph unicode="," horiz-adv-x="462" d="M51 -287q74 59 126 153.5t59 170.5q-39 0 -60 20q-16 20 -16 49q0 43 35 74q23 20 59 21q33 0 53 -21l8 -12q12 -25 13 -62q0 -96 -72 -231t-168 -209z" />
<glyph unicode="-" horiz-adv-x="608" d="M143 520l15 96h467l-13 -96h-469z" />
<glyph unicode="." horiz-adv-x="497" d="M162 61q0 49 39 84q31 25 67 25q39 0 64 -25q18 -20 18 -55q0 -49 -37 -84q-35 -25 -69 -24q-39 0 -62 24q-20 25 -20 55z" />
<glyph unicode="/" horiz-adv-x="854" d="M-70 -512l1057 2048h113l-1055 -2048h-115z" />
<glyph unicode="0" horiz-adv-x="1150" d="M193 494q0 248 57 436t187.5 304t318.5 116q111 0 190.5 -43t120.5 -117t59.5 -155t18.5 -173q0 -399 -162 -640.5t-401 -241.5q-193 0 -291 134t-98 380zM348 455q0 -186 63.5 -283.5t182.5 -97.5q160 0 277.5 214t117.5 590.5t-246 376.5q-182 0 -288.5 -200.5 t-106.5 -599.5z" />
<glyph unicode="1" horiz-adv-x="755" d="M266 1155l330 176h121l-187 -1331h-147l168 1212l-262 -137z" />
<glyph unicode="2" horiz-adv-x="972" d="M88 0l16 123q25 8 101 64.5t180 152.5t201.5 205.5t165 243t67.5 247.5q0 213 -231 213q-68 0 -142.5 -28.5t-115.5 -56.5l-41 -27l-2 96q16 12 47 31.5t119 52.5t170 33q180 0 271 -82t91 -221q0 -104 -53 -220t-129 -210.5t-180.5 -192.5t-186.5 -161.5t-168 -123.5 h629l-18 -139h-791z" />
<glyph unicode="3" horiz-adv-x="972" d="M102 133l62 80q4 -6 11 -15.5t34 -32t57.5 -41t79.5 -32.5t103 -14q164 0 246.5 101.5t82.5 275.5q0 100 -54 158.5t-157 58.5q-33 0 -64.5 -11.5t-46.5 -22.5l-16 -11l-45 61l449 502h-537l29 141h672l-15 -96l-436 -481q25 6 57 6q145 0 231.5 -87t86.5 -233 q0 -209 -135 -334.5t-344 -125.5q-72 0 -134.5 15t-100.5 38.5t-65.5 46t-38.5 38.5z" />
<glyph unicode="4" horiz-adv-x="1007" d="M117 336l2 78q250 387 465 936l139 -19q-172 -426 -487 -903h469l133 709h116l-98 -709h145l-12 -82l-145 -10l-47 -336h-152l47 336h-575z" />
<glyph unicode="5" horiz-adv-x="952" d="M70 131l63 76q10 -14 28.5 -35.5t89.5 -57.5t157 -36q164 0 262 110.5t98 284.5q0 117 -65.5 186.5t-180.5 69.5q-63 0 -114.5 -19.5t-67.5 -37.5l-4 -6l-60 8l154 657h557l-29 -143h-469l-94 -400q76 27 152 27q174 0 276.5 -90t102.5 -248q0 -225 -150.5 -361 t-367.5 -136q-109 0 -193 37.5t-115 75.5z" />
<glyph unicode="6" horiz-adv-x="1058" d="M176 403q0 125 29 259q70 346 212 517t335 171q63 0 126.5 -17.5t95.5 -35.5l32 -17l-35 -90q-100 66 -219 65q-303 0 -400 -546q152 131 324 131q166 0 258 -91.5t92 -248.5q0 -49 -4 -74q-29 -193 -154 -319.5t-323 -126.5q-180 0 -274.5 109.5t-94.5 313.5zM330 362 q0 -293 229 -292q133 0 207 97t98 255q6 43 6 80q0 117 -55 185.5t-168 68.5q-168 0 -291 -152q-18 -61 -24 -188q-2 -18 -2 -54z" />
<glyph unicode="7" horiz-adv-x="862" d="M223 0q158 446 639 1184h-612l20 147h740l-17 -123q-170 -256 -342 -591.5t-266 -616.5h-162z" />
<glyph unicode="8" horiz-adv-x="1028" d="M141 285q0 295 326 397q-205 68 -205 276q0 180 121 286t319 106q160 0 254.5 -77t94.5 -216q0 -283 -303 -377q236 -68 235 -287q0 -207 -126 -310t-345 -103q-371 0 -371 305zM305 285q0 -221 219 -222q135 0 215 88t80 250q0 197 -201 242q-33 -4 -71.5 -17.5 t-100 -48t-101.5 -110.5t-40 -182zM418 946q0 -188 176 -231q25 2 53.5 9t75.5 30.5t82 58.5t61.5 100.5t26.5 149.5q0 203 -203 203q-129 0 -200.5 -86.5t-71.5 -233.5z" />
<glyph unicode="9" horiz-adv-x="1058" d="M217 815q0 213 133 374t355 161q176 0 270 -108.5t94 -309.5q0 -174 -20 -256q-66 -346 -202 -521t-333 -175q-88 0 -157.5 26.5t-95.5 52.5l-25 27l45 82q8 -10 25.5 -25.5t76.5 -42t127 -26.5q139 0 238.5 135t144.5 397q-127 -141 -320 -141q-166 0 -261 95t-95 255z M371 811q0 -113 56 -187.5t167 -74.5t191.5 58.5t109.5 119.5q16 94 20 215v33q0 285 -219 285q-150 0 -237.5 -134.5t-87.5 -314.5z" />
<glyph unicode=":" horiz-adv-x="501" d="M162 61q0 49 39 84q31 25 67 25q39 0 64 -25q18 -20 18 -55q0 -49 -37 -84q-35 -25 -69 -24q-39 0 -62 24q-20 25 -20 55zM270 838q0 49 39 84q31 25 68 24q39 0 63 -24q18 -23 19 -56q0 -51 -37 -84q-33 -25 -70 -24q-41 0 -61.5 24.5t-20.5 55.5z" />
<glyph unicode=";" horiz-adv-x="497" d="M72 -287q74 59 126 153.5t58 170.5q-39 0 -59 20q-16 20 -17 49q0 43 35 74q23 20 59 21q33 0 54 -21l8 -12q12 -25 12 -62q0 -96 -71.5 -231t-167.5 -209zM270 838q0 49 39 84q31 25 68 24q39 0 63 -24q18 -23 19 -56q0 -51 -37 -84q-33 -25 -70 -24q-41 0 -61.5 24.5 t-20.5 55.5z" />
<glyph unicode="&#x3c;" horiz-adv-x="753" d="M215 651l551 408l41 -60l-449 -350l355 -348l-62 -59z" />
<glyph unicode="=" horiz-adv-x="962" d="M117 326l14 96h821l-14 -96h-821zM172 715l14 96h822l-15 -96h-821z" />
<glyph unicode="&#x3e;" horiz-adv-x="753" d="M129 301l446 350l-348 348l60 60l434 -408l-549 -409z" />
<glyph unicode="?" horiz-adv-x="841" d="M215 61q0 49 39 84q31 25 68 25q39 0 63 -25q18 -20 18 -55q0 -49 -36 -84q-35 -25 -70 -24q-39 0 -61 24q-20 25 -21 55zM279 1448q12 12 37.5 29.5t107.5 47t170 29.5q158 0 237.5 -89t79.5 -218q0 -111 -35.5 -188.5t-89 -117.5t-119 -85t-123 -88t-102.5 -130 t-57 -208l-74 -6q10 115 41 199t71 133t86 87t90 70.5t80 71.5t58.5 103.5t22.5 152.5q0 98 -53.5 158.5t-157.5 60.5q-72 0 -137.5 -25.5t-94.5 -50.5l-28 -24z" />
<glyph unicode="@" horiz-adv-x="1701" d="M154 219q0 489 247.5 784t694.5 295q291 0 444.5 -153.5t153.5 -433.5q0 -358 -133.5 -548t-319.5 -190q-156 0 -166 109q-88 -111 -239 -111q-133 0 -210 83t-77 247q0 229 122 382t308 153q125 0 195 -82l34 53h66l-86 -623q-4 -37 -4 -47q0 -90 80 -90q49 0 99 33 t99 103.5t80 206.5t31 319q0 248 -123 376.5t-367 128.5q-369 0 -582.5 -259t-213.5 -724q0 -301 144 -455.5t405 -154.5q92 0 176 20.5t138 49t96 57.5t62 49l19 21l29 -74q-6 -8 -19.5 -22.5t-62.5 -52.5t-105.5 -65.5t-150.5 -51t-197 -23.5q-326 0 -496.5 179 t-170.5 511zM674 295q-1 -248 200 -248q133 0 209 139l66 471q-33 104 -166 105q-141 0 -225 -127t-84 -340z" />
<glyph unicode="A" horiz-adv-x="1163" d="M47 0l635 1331h182l254 -1331h-162l-82 410h-522l-196 -410h-109zM391 494h467l-129 718z" />
<glyph unicode="B" horiz-adv-x="1110" d="M193 0l186 1331h336q184 0 280.5 -77.5t96.5 -209.5q0 -233 -238 -346q100 -29 157.5 -98.5t57.5 -173.5q0 -197 -135 -311.5t-404 -114.5h-337zM358 90h181q186 0 281 89t95 253q0 104 -61.5 158.5t-165.5 54.5h-252zM449 729h243q82 0 166 77t84 226q0 104 -65.5 156.5 t-178.5 52.5h-178z" />
<glyph unicode="C" horiz-adv-x="1167" d="M178 528q0 362 191.5 592t490.5 230q94 0 187.5 -30t139.5 -58l46 -29l-29 -96q-18 12 -50 30.5t-122 49t-170 30.5q-225 0 -372.5 -189.5t-147.5 -533.5q0 -213 105.5 -327.5t283.5 -114.5q70 0 133.5 20.5t106.5 49t75.5 58.5t48.5 50l15 21l47 -66q-6 -10 -17.5 -25.5 t-53.5 -56.5t-90 -71.5t-129 -56t-169 -25.5q-242 0 -381 146t-139 402z" />
<glyph unicode="D" horiz-adv-x="1298" d="M193 0l186 1331h405q250 0 385.5 -139t135.5 -404q0 -373 -186.5 -580.5t-520.5 -207.5h-405zM360 98h254q244 0 385.5 177.5t141.5 529.5q0 211 -94.5 319.5t-274.5 108.5h-252z" />
<glyph unicode="E" horiz-adv-x="1038" d="M193 0l186 1331h717l-13 -98h-563l-71 -512h516l-15 -94h-514l-74 -529h607l-15 -98h-761z" />
<glyph unicode="F" horiz-adv-x="950" d="M193 0l186 1331h731l-12 -98h-576l-76 -531h496l-14 -94h-494l-86 -608h-155z" />
<glyph unicode="G" horiz-adv-x="1269" d="M178 522q0 379 188.5 603.5t516.5 224.5q94 0 188 -30t141 -58l48 -29l-33 -96q-18 12 -50 30.5t-122 49t-170 30.5q-260 0 -401.5 -187.5t-141.5 -537.5q0 -215 88 -327.5t248 -112.5q84 0 151.5 26.5t106.5 68.5t57.5 72t28.5 54l43 301h-272l14 88h401l-96 -692h-76 l-18 145q-140 -165 -374 -165h-3q-223 0 -343 142t-120 400z" />
<glyph unicode="H" horiz-adv-x="1306" d="M193 0l186 1331h156l-84 -598h608l84 598h155l-186 -1331h-156l88 639h-608l-88 -639h-155z" />
<glyph unicode="I" horiz-adv-x="542" d="M193 0l186 1331h156l-187 -1331h-155z" />
<glyph unicode="J" horiz-adv-x="741" d="M31 68l32 77q4 -8 15.5 -19t53.5 -29.5t93 -18.5q193 0 240 313l131 940h156l-134 -940q-33 -229 -127 -320t-233 -91q-76 0 -133 21.5t-76 43.5z" />
<glyph unicode="K" horiz-adv-x="1187" d="M193 0l186 1331h156l-103 -725l182 144l531 581h125l-549 -594l426 -737h-195l-362 618l-174 -126l-68 -492h-155z" />
<glyph unicode="L" horiz-adv-x="964" d="M193 0l186 1331h156l-175 -1233h594l-14 -98h-747z" />
<glyph unicode="M" horiz-adv-x="1710" d="M193 0l192 1331h193l309 -1141h2l629 1141h180l-180 -1331h-152l154 1141l-623 -1141h-125l-303 1141l-164 -1141h-112z" />
<glyph unicode="N" horiz-adv-x="1333" d="M193 0l186 1331h162l526 -1098v50l147 1048h113l-186 -1331h-135l-549 1135h-2l2 -64l-152 -1071h-112z" />
<glyph unicode="O" horiz-adv-x="1339" d="M180 532q0 367 180.5 592.5t487.5 225.5q250 0 374 -151.5t124 -389.5q0 -377 -195 -603t-475 -226q-233 0 -364.5 147t-131.5 405zM342 510q0 -203 90 -317.5t252 -114.5q211 0 354.5 192.5t143.5 554.5q0 188 -85 307t-257 119q-227 0 -362.5 -193.5t-135.5 -547.5z " />
<glyph unicode="P" horiz-adv-x="1015" d="M193 0l186 1331h319q182 0 281.5 -87t99.5 -259q0 -137 -45 -241.5t-118.5 -163t-157.5 -86t-176 -27.5h-168l-66 -467h-155zM426 553h145q150 0 247 103.5t97 332.5q0 252 -245 252h-150z" />
<glyph unicode="Q" horiz-adv-x="1339" d="M180 532q0 367 180.5 592.5t487.5 225.5q250 0 374 -151.5t124 -389.5q0 -344 -163 -563t-411 -258q119 -225 272 -226q37 0 74 15l-2 -82q-53 -20 -112 -21q-123 0 -227.5 85t-158.5 223q-209 18 -323.5 162.5t-114.5 387.5zM342 510q0 -203 90 -317.5t252 -114.5 q211 0 354.5 192.5t143.5 554.5q0 188 -85 307t-257 119q-227 0 -362.5 -193.5t-135.5 -547.5z" />
<glyph unicode="R" horiz-adv-x="1103" d="M193 0l186 1331h321q182 0 282.5 -87t100.5 -251q0 -186 -87 -305t-222 -166l260 -522h-178l-238 494h-200l-70 -494h-155zM430 586h166q322 0 322 409q0 246 -248 246h-148z" />
<glyph unicode="S" horiz-adv-x="1003" d="M117 166l61 80q2 -6 9.5 -17.5t32 -40t56 -50t89 -40t124.5 -18.5q147 0 230.5 80t83.5 198q0 80 -53.5 137.5t-129 95.5t-151.5 79t-129 111.5t-53 170.5q0 184 122.5 291t321.5 107q90 0 164 -29t103 -57l30 -29l-31 -90q-10 12 -31.5 30.5t-91 49t-147.5 30.5 q-129 0 -206 -67.5t-77 -186.5q0 -80 53.5 -137t130.5 -96t153.5 -81t130 -114.5t53.5 -173.5q0 -186 -132.5 -302.5t-336.5 -116.5q-84 0 -154 19t-109.5 46t-67.5 54.5t-38 46.5z" />
<glyph unicode="T" horiz-adv-x="944" d="M188 1233l15 98h915l-14 -98h-381l-174 -1233h-156l174 1233h-379z" />
<glyph unicode="U" horiz-adv-x="1269" d="M229 346q0 43 7 88l126 897h154l-121 -862q-6 -49 -6 -92q0 -143 69.5 -218t205.5 -75q162 0 260 101.5t123 283.5l120 862h113l-127 -897q-29 -209 -160 -331.5t-362 -122.5q-199 0 -300.5 97t-101.5 269z" />
<glyph unicode="V" horiz-adv-x="1122" d="M217 1331h162l217 -1216l563 1216h115l-629 -1331h-180z" />
<glyph unicode="W" horiz-adv-x="1736" d="M217 1331h164l141 -1153l488 1153h137l170 -1147l457 1147h114l-545 -1331h-143l-172 1139l-487 -1139h-144z" />
<glyph unicode="X" horiz-adv-x="1107" d="M37 0l518 659l-315 672h188l250 -557h2l422 557h129l-498 -645l338 -686h-190l-269 571h-2l-436 -571h-137z" />
<glyph unicode="Y" horiz-adv-x="1038" d="M190 1331h175l274 -655l457 655h125l-545 -772l-76 -559h-156l76 551z" />
<glyph unicode="Z" horiz-adv-x="1079" d="M82 0l12 82l881 1151h-701l13 98h893l-13 -84l-882 -1149h723l-15 -98h-911z" />
<glyph unicode="[" horiz-adv-x="684" d="M158 -156l223 1592h483l-12 -90h-352l-199 -1409h352l-12 -93h-483z" />
<glyph unicode="\" horiz-adv-x="854" d="M186 1536h113l479 -2048h-112z" />
<glyph unicode="]" horiz-adv-x="684" d="M0 -156l14 93h348l199 1409h-350l12 90h484l-224 -1592h-483z" />
<glyph unicode="^" horiz-adv-x="688" d="M219 1065l320 342l229 -342l-57 -53l-189 264l-262 -264z" />
<glyph unicode="_" horiz-adv-x="1277" d="M29 -299l14 96h1137l-15 -96h-1136z" />
<glyph unicode="`" horiz-adv-x="423" d="M184 1450l131 33l129 -293l-86 -16z" />
<glyph unicode="a" d="M135 391q0 281 138.5 467t379.5 186q49 0 92 -10t68 -23.5t44.5 -31.5t25.5 -27.5t10 -15.5l35 88h119l-144 -1024h-119l-8 119q-12 -18 -29.5 -35.5t-52.5 -44.5t-90 -43t-121 -16q-160 0 -254 108.5t-94 302.5zM291 381q0 -150 63 -225.5t178 -75.5q158 0 250 137 l90 621q-2 4 -7 13t-21.5 26.5t-37 32t-57 25.5t-77.5 11q-186 0 -283.5 -152.5t-97.5 -412.5z" />
<glyph unicode="b" d="M152 0l215 1532l149 8l-90 -637h4q4 6 10 15.5t32 34t56.5 43t82 33.5t110.5 15q158 0 251 -108.5t93 -300.5q0 -283 -136 -469t-376 -186q-172 0 -254 100l-39 -80h-108zM324 168q59 -90 204 -90q186 0 283.5 151.5t97.5 421.5q0 143 -63.5 218t-179.5 75 q-76 0 -138.5 -36t-88.5 -72l-25 -37l-2 4z" />
<glyph unicode="c" horiz-adv-x="866" d="M137 397q0 299 135.5 473t393.5 174q74 0 143.5 -24.5t101.5 -47.5l33 -24l-26 -84q-104 90 -240 90q-383 0 -383 -575q0 -158 72.5 -233.5t193.5 -75.5q80 0 142.5 29.5t86.5 59.5l23 29l59 -43q-4 -6 -11 -17t-35.5 -40t-63.5 -50.5t-95.5 -39.5t-129.5 -18 q-186 0 -293 107.5t-107 309.5z" />
<glyph unicode="d" d="M135 395q0 281 135.5 465t368.5 184q84 0 145.5 -24.5t80.5 -48.5l20 -25h2l82 586l151 8l-217 -1540h-127v119q-100 -139 -291 -139q-162 0 -256 110.5t-94 304.5zM289 377q0 -297 241 -297q70 0 132.5 35t85 59.5t36.5 46.5l88 633q-70 92 -202 92q-193 0 -287 -152 q-31 -51 -52 -114.5t-31.5 -139t-10.5 -163.5z" />
<glyph unicode="e" horiz-adv-x="927" d="M135 393q0 293 141.5 472t370.5 179q143 0 226 -77.5t83 -192.5q0 -70 -25.5 -123t-74.5 -86t-102.5 -54.5t-124 -31.5t-124.5 -13t-122 -3h-92q-2 -29 -2 -88q0 -154 74.5 -229.5t199.5 -75.5q51 0 97.5 12t76 29.5t52 36t32.5 30.5l10 12l54 -49q-4 -6 -12.5 -17 t-39 -39t-67.5 -49.5t-98.5 -38.5t-130.5 -17q-180 0 -291 106.5t-111 306.5zM299 541h88q66 0 118 4t115.5 18.5t104.5 39t69.5 70.5t28.5 109q0 76 -51 125t-143 49q-131 0 -217 -109.5t-113 -305.5z" />
<glyph unicode="f" horiz-adv-x="638" d="M-168 -487l43 84q33 -33 96 -33q80 0 131 82t78 270l142 1008h-107l12 86l109 12l20 147q29 199 104 292t220 93q49 0 95 -15t69 -30l22 -14l-32 -80q-61 47 -141.5 47t-122.5 -65.5t-66 -243.5l-19 -129h295l-14 -100h-295l-141 -1008q-63 -448 -352 -448h-1 q-49 0 -84.5 11t-48.5 22z" />
<glyph unicode="g" horiz-adv-x="923" d="M16 -233q0 123 62.5 198.5t154.5 108.5q-31 39 -30 102q0 117 114 191q-131 78 -131 256q0 217 122 319t308 102q76 0 136 -20h2l266 -2l-8 -80l-138 -4q57 -74 58 -190q0 -205 -112.5 -318t-303.5 -113q-66 0 -125 17q-82 -43 -82 -111q0 -92 170 -92q414 0 414 -278 q0 -178 -123 -281.5t-350 -103.5q-195 0 -299.5 76.5t-104.5 222.5zM129 -223q0 -217 303 -217q158 0 242 65.5t84 188.5q0 188 -301 188q-90 0 -150 21q-178 -61 -178 -246zM330 614q0 -104 50 -159.5t142 -55.5q127 0 196.5 90.5t69.5 266.5q0 200 -186 200h-2 q-270 0 -270 -342z" />
<glyph unicode="h" horiz-adv-x="1044" d="M152 0l213 1532l151 8l-86 -606h4q10 12 32.5 30.5t101.5 49t169 30.5q131 0 203 -63t72 -190q0 -37 -6 -76l-99 -715h-149l96 696q4 23 4 66q0 174 -180 174q-160 0 -262 -102l-117 -834h-147z" />
<glyph unicode="i" horiz-adv-x="452" d="M152 0l143 1024h147l-143 -1024h-147zM324 1310q0 46 36 74q25 23 64 23q37 0 57 -21q16 -18 17 -53q0 -45 -35 -80q-32 -22 -63 -22h-3q-37 0 -55 22q-9 10 -13.5 24.5t-4.5 32.5z" />
<glyph unicode="j" horiz-adv-x="487" d="M-172 -487l43 84q33 -33 96 -33q82 0 132 82t77 270l156 1108h149l-155 -1108q-63 -448 -352 -448h-1q-49 0 -84.5 11t-48.5 22zM360 1307q0 48 37 77q25 23 64 23q37 0 57 -21q16 -18 17 -53q0 -45 -35 -80q-32 -22 -63 -22h-3q-37 0 -55 22q-18 20 -19 54z" />
<glyph unicode="k" horiz-adv-x="931" d="M152 0l213 1532l151 8l-139 -987l139 88l358 383h113l-397 -420l297 -604h-172l-252 516l-101 -57l-63 -459h-147z" />
<glyph unicode="l" horiz-adv-x="452" d="M152 0l215 1532l149 8l-215 -1540h-149z" />
<glyph unicode="m" horiz-adv-x="1482" d="M152 0l143 1024h123l4 -106q126 126 300 126h3q168 0 201 -126q126 126 310 126h3q111 0 163 -47t52 -157q0 -39 -6 -88l-105 -752h-149l104 735q6 41 7 70q0 76 -33 104.5t-101 28.5q-59 0 -116.5 -27.5t-82 -50t-38.5 -39.5l-6 -67l-107 -754h-147l102 735q6 39 6 72 q0 74 -31.5 102.5t-97.5 28.5q-61 0 -119.5 -26.5t-81 -47t-36.5 -37.5l-115 -827h-149z" />
<glyph unicode="n" horiz-adv-x="1046" d="M152 0l143 1024h123l8 -94q114 114 310 114h3q131 0 202 -63t71 -190q0 -37 -6 -76l-99 -715h-149q94 670 98 696q4 23 4 62q0 178 -186 178q-154 0 -256 -102l-117 -834h-149z" />
<glyph unicode="o" horiz-adv-x="1026" d="M137 401q0 293 136.5 468t385.5 175q178 0 274.5 -110t96.5 -311q0 -291 -139 -467t-383 -176q-178 0 -274.5 110.5t-96.5 310.5zM291 373q0 -143 58.5 -223t176.5 -80q170 0 260.5 150.5t90.5 428.5q0 145 -58.5 225t-175.5 80q-172 0 -262 -151.5t-90 -429.5z" />
<glyph unicode="p" d="M80 -516l215 1540h123l2 -125q10 14 27.5 31.5t54.5 47.5t96 48t127 18q158 0 249 -107.5t91 -299.5q0 -283 -135 -470t-369 -187q-84 0 -146.5 24.5t-82.5 48.5l-21 25h-2l-82 -590zM324 168q10 -14 25.5 -30.5t65.5 -38t111 -21.5q186 0 284 148q48 75 72.5 179.5 t24.5 239.5q0 299 -243 299q-154 0 -250 -137z" />
<glyph unicode="q" d="M135 391q0 281 139.5 467t374.5 186q168 0 246 -96l45 76h107l-216 -1536l-149 -4l90 639h-4q-4 -6 -10 -15.5t-31 -34t-55.5 -44t-81.5 -34.5t-109 -15q-160 0 -253 109.5t-93 301.5zM291 383q0 -303 246 -303q76 0 137 35t86 69l24 35l90 635q-61 92 -198 92 q-188 0 -286.5 -147.5t-98.5 -415.5z" />
<glyph unicode="r" horiz-adv-x="671" d="M152 0l143 1024h108l-6 -211q2 10 8.5 25.5t27 55.5t46 70.5t66.5 55t88 24.5q27 0 67.5 -8t67.5 -16l27 -8l-27 -113q-96 31 -162 31q-57 0 -107 -46t-69.5 -84t-26.5 -61v-2l-104 -737h-147z" />
<glyph unicode="s" horiz-adv-x="835" d="M96 127l62 72q2 -6 7 -14.5t25.5 -31t45 -39t66.5 -30.5t91 -14q127 0 193.5 65.5t66.5 155.5q0 63 -45 104t-108.5 65.5t-127 51.5t-108.5 81t-45 136q0 145 109.5 230t275.5 85q66 0 129.5 -22.5t93.5 -43.5l31 -22l-27 -88q-102 90 -227 90q-106 0 -171.5 -54 t-65.5 -136q0 -63 46 -106.5t111.5 -68t131 -52t111.5 -83t46 -136.5q0 -145 -104.5 -243.5t-302.5 -98.5q-68 0 -125.5 15t-90 36.5t-55 43t-31.5 37.5z" />
<glyph unicode="t" horiz-adv-x="667" d="M211 924l14 86l107 12l102 326h92l-45 -324h262l-14 -100h-262l-86 -613q-8 -57 -8 -110q0 -68 21.5 -95.5t68.5 -27.5q37 0 70.5 6t50.5 11l16 5l-2 -82q-59 -38 -188 -38h-7q-94 0 -139 46t-45 150q0 49 8 98l90 650h-106z" />
<glyph unicode="u" horiz-adv-x="1044" d="M176 238q0 35 6 71l101 715h147l-94 -684q-6 -37 -6 -68q0 -184 182 -184q74 0 138.5 25.5t91.5 52.5l28 27l119 831h149l-145 -1024h-123l-6 98q-118 -118 -310 -118h-3q-131 0 -203 65.5t-72 192.5z" />
<glyph unicode="v" horiz-adv-x="894" d="M172 1024h176l146 -862l403 862h115l-498 -1024h-135z" />
<glyph unicode="w" horiz-adv-x="1353" d="M174 1024h166l76 -836h2l360 836h117l137 -836l318 836h114l-417 -1024h-132l-122 829l-359 -829h-133z" />
<glyph unicode="x" horiz-adv-x="907" d="M25 0l411 510l-252 514h176l195 -428l322 428h120l-385 -489l269 -535h-174l-213 442l-347 -442h-122z" />
<glyph unicode="y" horiz-adv-x="925" d="M-35 -506l29 94q35 -18 80 -18q49 0 94 28.5t91 93t82 126t89 168.5l-254 1038h176l183 -854l397 854h106l-499 -1038q-119 -248 -225.5 -383t-229.5 -135q-37 0 -66.5 6t-41.5 13z" />
<glyph unicode="z" horiz-adv-x="849" d="M72 0l12 82l643 850h-479l6 92h657l-10 -82l-641 -850h516l-8 -92h-696z" />
<glyph unicode="{" horiz-adv-x="768" d="M276 549l13 78l4 20q72 0 145.5 68.5t73.5 189.5q0 37 -4 125t-4 127q0 184 83 279.5t324 95.5l-12 -88q-158 0 -213 -75t-55 -218q0 -41 4 -131t4 -127q0 -109 -54.5 -183.5t-142.5 -111.5q133 -57 133 -188q0 -74 -60 -240t-60 -250q0 -168 207 -168l-13 -88 q-176 0 -249.5 59.5t-73.5 174.5q0 100 59 264t59 223q0 70 -55.5 117t-112.5 47z" />
<glyph unicode="|" horiz-adv-x="598" d="M176 -512l289 2048h102l-288 -2048h-103z" />
<glyph unicode="}" horiz-adv-x="768" d="M76 -336l12 88q158 0 212 75t54 218q0 41 -4 131t-4 127q0 109 53.5 184.5t143.5 110.5q-133 57 -133 188q0 74 60 240t60 250q0 168 -204 168l12 88q176 0 251 -59.5t75 -174.5q0 -100 -60.5 -264t-60.5 -223q0 -70 54 -117t112 -47l-4 -20h2l-11 -78 q-74 0 -148.5 -67.5t-74.5 -186.5q0 -39 5 -129t5 -131q0 -182 -84 -276.5t-323 -94.5z" />
<glyph unicode="~" horiz-adv-x="1173" d="M158 662q4 8 11 23t33.5 52t60.5 65.5t91.5 52.5t122.5 24q88 0 160 -34t114 -73t103 -72.5t129 -33.5q59 0 103 25.5t60 49.5l15 25l53 -39q-4 -8 -10 -22.5t-30.5 -50.5t-55.5 -62.5t-83 -49t-111 -22.5q-68 0 -124.5 21.5t-96 53.5t-78.5 63.5t-91.5 53t-113.5 21.5 q-66 0 -118 -28.5t-72 -57.5l-19 -29z" />
<glyph unicode="&#xa1;" horiz-adv-x="565" d="M125 -512l25 170l169 932h91l-95 -932l-24 -170h-166zM317 932q0 49 39 84q31 25 68 24q39 0 63 -24q18 -20 19 -55q0 -51 -37 -84q-33 -25 -70 -25q-39 0 -61 25q-20 25 -21 55z" />
<glyph unicode="&#xa2;" horiz-adv-x="866" d="M156 535q0 279 116.5 449.5t341.5 193.5l45 256h86l-20 -254q63 -6 122.5 -30t87.5 -44l28 -21l-27 -84q-104 90 -240 91q-383 0 -383 -576q0 -158 73 -233.5t194 -75.5q80 0 142 29.5t86 59.5l23 30l60 -43q-4 -6 -11.5 -17.5t-34 -39t-59 -49t-89 -40t-122.5 -20.5 l-38 -219h-86l18 225q-147 25 -230 129t-83 283z" />
<glyph unicode="&#xa3;" horiz-adv-x="1040" d="M94 0l21 137h75q94 59 131 168t46 273l-191 6l12 88h183q4 182 18 307q20 178 127 274.5t285 96.5q55 0 117.5 -19.5t97.5 -38.5l35 -18l-37 -88q-104 66 -195 65q-115 0 -179.5 -63.5t-84.5 -206.5q-2 -8 -39 -309h459l-14 -97h-459q-49 -317 -166 -438h680l-21 -137 h-901z" />
<glyph unicode="&#xa4;" horiz-adv-x="1105" d="M131 184l238 219q-41 76 -41 181q0 180 102 303l-172 217l68 76l155 -244q94 78 213 78q113 0 187 -80l229 244l45 -76l-240 -217q48 -81 48 -183q0 -182 -107 -305l172 -215l-65 -76l-156 242q-94 -76 -211 -76q-119 0 -190 82l-228 -245zM416 592q0 -106 52 -168 t140 -62q113 0 189.5 92.5t76.5 239.5q0 106 -52 168t-142 62q-115 0 -189.5 -91.5t-74.5 -240.5z" />
<glyph unicode="&#xa5;" horiz-adv-x="1153" d="M432 1331h174l275 -655l456 655h125l-477 -676h248l-12 -82h-293l-10 -14l-25 -180h301l-12 -82h-301l-39 -297h-156l41 297h-281l13 82h278l25 172l-10 22h-267l13 82h219z" />
<glyph unicode="&#xa6;" horiz-adv-x="598" d="M176 -512l115 819h102l-114 -819h-103zM348 717l117 819h102l-116 -819h-103z" />
<glyph unicode="&#xa7;" horiz-adv-x="995" d="M158 -47l47 76q4 -10 23.5 -35t79 -55.5t132.5 -30.5q145 0 202.5 61.5t57.5 149.5q0 63 -49 106t-119.5 70t-141.5 57.5t-120 90t-49 147.5q0 205 172 289q-41 53 -41 131q0 141 104.5 240.5t295.5 99.5q68 0 133 -23.5t97 -48.5l32 -25l-29 -82q-104 88 -227 89 q-133 0 -195.5 -69t-62.5 -153q0 -66 51 -110.5t122.5 -71.5t144.5 -56.5t124 -88t51 -144.5q0 -203 -184 -295q39 -51 39 -125q0 -141 -99.5 -235t-302.5 -94q-61 0 -113 14t-83 33.5t-53.5 39t-30.5 34.5zM332 637q0 -86 70.5 -136t188.5 -93t169 -84q125 57 125 200 q0 61 -49.5 107.5t-113 69t-148.5 57.5t-132 71q-110 -53 -110 -192z" />
<glyph unicode="&#xa8;" horiz-adv-x="768" d="M262 1307q0 40 33 73q27 20 57 21q29 0 49 -21q16 -16 17 -47q0 -41 -33 -73q-27 -20 -55 -21q-31 0 -51 21q-16 20 -17 47zM578 1307q-1 40 32 73q27 20 56 21q31 0 51 -21q16 -20 16 -47q0 -41 -33 -73q-27 -20 -57 -21q-29 0 -49 21q-16 20 -16 47z" />
<glyph unicode="&#xa9;" horiz-adv-x="1492" d="M231 557q0 367 191.5 584t511.5 217q242 0 376 -152.5t134 -412.5q0 -84 -10 -152q-45 -317 -228.5 -493.5t-466.5 -176.5q-242 0 -375 160t-133 426zM313 565q0 -240 116 -380t321 -140q242 0 402.5 153.5t201.5 440.5q10 82 10 141q0 233 -117 368.5t-323 135.5 q-276 0 -443.5 -193.5t-167.5 -525.5zM535 608q0 190 106.5 300t273.5 110q53 0 98.5 -18.5t63.5 -36.5l19 -19l-27 -63q-57 68 -151 67q-125 0 -200 -88t-75 -252q0 -109 62.5 -179.5t150.5 -70.5q35 0 65.5 10.5t50 26t33 30.5t18.5 26l5 10l31 -41q-2 -6 -6 -14.5 t-22.5 -32t-42 -41t-67.5 -31.5t-98 -14q-119 0 -203.5 90t-84.5 231z" />
<glyph unicode="&#xaa;" horiz-adv-x="796" d="M184 809q0 262 498 297l6 35q4 37 4 53q0 68 -34.5 98.5t-110.5 30.5q-57 0 -110.5 -20.5t-78.5 -41.5l-24 -22l-27 49q8 12 27.5 29.5t90.5 46.5t157 29q244 0 243 -203q0 -18 -4 -60l-67 -475h-105l-12 107q-12 -25 -33.5 -49.5t-78 -51t-128.5 -26.5q-213 0 -213 174z M315 827q1 -116 146 -116q63 0 109 31.5t61 62.5l14 31l29 211q-74 -6 -129.5 -18.5t-111.5 -36t-87 -64.5t-31 -101z" />
<glyph unicode="&#xab;" horiz-adv-x="991" d="M242 512l366 350l39 -53l-264 -299l178 -303l-53 -55zM573 512l367 350l39 -53l-264 -299l178 -303l-53 -55z" />
<glyph unicode="&#xac;" horiz-adv-x="915" d="M195 604l12 94h694l-61 -436h-88l47 342h-604z" />
<glyph unicode="&#xad;" horiz-adv-x="634" d="M156 520l14 96h467l-12 -96h-469z" />
<glyph unicode="&#xae;" horiz-adv-x="1263" d="M227 836q0 324 172 519t451 195q211 0 329.5 -139t118.5 -371q0 -55 -10 -133q-41 -283 -202.5 -441.5t-411.5 -158.5q-213 0 -330 145.5t-117 383.5zM307 840q0 -207 99.5 -333t277.5 -126q213 0 351 136t173 388q8 59 9 127q0 207 -98.5 328t-278.5 121 q-246 0 -389.5 -176.5t-143.5 -464.5zM549 602l90 649h170q209 0 209 -153q0 -178 -170 -224l96 -272h-90l-90 262h-98l-37 -262h-80zM672 915h90q72 0 119 42t47 139q0 100 -125 100h-92z" />
<glyph unicode="&#xaf;" horiz-adv-x="808" d="M397 1303l11 73h378l-10 -73h-379z" />
<glyph unicode="&#xb0;" horiz-adv-x="837" d="M256 1102q0 203 105.5 331t277.5 128q127 0 200.5 -87.5t73.5 -232.5q0 -199 -105.5 -326t-277.5 -127q-133 0 -203.5 84t-70.5 230zM377 1092q0 -102 42 -160t122 -58q111 0 181.5 99.5t70.5 283.5q0 102 -43 160t-123 58q-113 0 -181.5 -97.5t-68.5 -285.5z" />
<glyph unicode="&#xb1;" horiz-adv-x="962" d="M115 309l14 97h821l-14 -97h-821zM281 1028l14 96h301l51 357h92l-51 -357h301l-14 -96h-299l-49 -356h-92l49 356h-303z" />
<glyph unicode="&#xb2;" horiz-adv-x="772" d="M133 471l17 113q29 10 109.5 76.5t175.5 165t168 228.5t73 242q0 168 -164 168q-39 0 -89 -21.5t-80 -42.5l-30 -22l-10 78q127 96 252 96q135 0 201.5 -69.5t66.5 -184.5q0 -98 -53 -204.5t-141 -200.5t-167 -162.5t-163 -130.5h451l-19 -129h-598z" />
<glyph unicode="&#xb3;" horiz-adv-x="770" d="M162 528l43 74q51 -61 186 -61q119 0 192.5 79.5t73.5 219.5q0 74 -35.5 117.5t-103.5 43.5q-25 0 -47 -8t-33 -16l-10 -8l-41 55l330 383h-389l22 129h510l-12 -88l-326 -373q25 4 39 4q102 0 166 -69.5t64 -184.5q0 -168 -114 -270t-271 -102q-86 0 -146.5 19.5 t-79.5 37.5z" />
<glyph unicode="&#xb4;" horiz-adv-x="423" d="M283 1180l196 297l125 -31l-246 -277z" />
<glyph unicode="&#xb5;" horiz-adv-x="1058" d="M80 -512l108 774q0 23 7 47l100 715h147l-94 -684q-6 -37 -6 -68q0 -184 182 -184q74 0 138.5 25.5t92.5 52.5l27 27l119 831h150l-146 -1024h-123l-6 98q-119 -119 -313 -118q-104 0 -168 38q-53 -453 -64 -530h-151z" />
<glyph unicode="&#xb6;" horiz-adv-x="1222" d="M219 844q0 242 135 364.5t428 122.5h531l-17 -112h-118l-170 -1219h-125l170 1219h-195l-170 -1219h-123l70 500q-205 0 -310.5 82t-105.5 262z" />
<glyph unicode="&#xb7;" horiz-adv-x="497" d="M248 676q0 49 39 84q31 25 67 24q39 0 64 -24q18 -23 18 -55q0 -49 -37 -84q-35 -25 -69 -25q-39 0 -62 25q-20 25 -20 55z" />
<glyph unicode="&#xb8;" horiz-adv-x="479" d="M-8 -428l41 41q37 -66 127 -66q158 0 157 154q0 47 -38.5 71.5t-77.5 31t-39 8.5l49 182h59l-34 -135l43 -12q43 -11 87 -47t44 -97q0 -96 -62.5 -156.5t-179.5 -60.5q-61 0 -105.5 21.5t-57.5 42.5z" />
<glyph unicode="&#xb9;" horiz-adv-x="770" d="M338 1380l262 156h111l-150 -1065h-135l131 942l-197 -119z" />
<glyph unicode="&#xba;" horiz-adv-x="858" d="M211 942q0 207 106.5 329t307.5 122q152 0 228.5 -81.5t76.5 -228.5q0 -205 -107.5 -326.5t-304.5 -121.5q-152 0 -229.5 81t-77.5 226zM348 924q0 -221 178 -222q129 0 198 101.5t69 300.5q-1 217 -181 217q-127 0 -195.5 -100.5t-68.5 -296.5z" />
<glyph unicode="&#xbb;" horiz-adv-x="991" d="M154 205l264 295l-178 307l53 55l266 -362l-364 -348zM485 205l265 295l-179 307l54 55l266 -362l-365 -348z" />
<glyph unicode="&#xbc;" horiz-adv-x="1488" d="M338 1380l262 156h111l-150 -1065h-135l131 942l-197 -119zM455 41l782 1151l66 -43l-781 -1149zM707 -172q149 252 321 741l127 -16q-137 -375 -344 -711h305l49 334l64 221h106l-80 -555h103l-10 -73l-105 -13l-37 -268h-139l37 268h-397v72z" />
<glyph unicode="&#xbd;" horiz-adv-x="1609" d="M338 1380l262 156h111l-150 -1065h-135l131 942l-197 -119zM455 41l782 1151l66 -43l-781 -1149zM795 -512l16 113q29 10 109.5 76.5t176 165t168 228.5t72.5 242q0 168 -163 168q-39 0 -89.5 -21.5t-79.5 -42.5l-30 -22l-10 78q129 96 254 96q135 0 200.5 -69.5 t65.5 -184.5q0 -98 -53.5 -204.5t-142.5 -200.5t-165.5 -161.5t-162.5 -131.5h450l-18 -129h-598z" />
<glyph unicode="&#xbe;" horiz-adv-x="1587" d="M164 528l43 74q51 -61 186 -61q119 0 192.5 79.5t73.5 219.5q0 74 -35.5 117.5t-103.5 43.5q-25 0 -47 -8t-33 -16l-10 -8l-41 55l330 383h-389l22 129h510l-12 -88l-326 -373q25 4 39 4q102 0 166 -69.5t64 -184.5q0 -168 -114 -270t-271 -102q-86 0 -146.5 19.5 t-79.5 37.5zM551 41l782 1151l66 -43l-781 -1149zM805 -172q149 252 321 741l127 -16q-137 -375 -344 -711h305l50 334l63 221h107l-80 -555h102l-10 -73l-105 -13l-36 -268h-140l37 268h-397v72z" />
<glyph unicode="&#xbf;" horiz-adv-x="841" d="M55 -219q0 96 27 167.5t71 113.5t98 77t109.5 70t103.5 79t84 119.5t46 176.5l72 6q-10 -117 -42 -201t-72 -130t-87 -81t-91 -64.5t-80 -67.5t-58.5 -105.5t-22.5 -163.5t60.5 -155.5t181.5 -59.5q51 0 93 18.5t58 37.5l17 20l41 -62q-2 -4 -7.5 -11t-26 -26.5t-45 -34 t-66.5 -25.5t-91 -11q-178 0 -275.5 83.5t-97.5 229.5zM580 932q-1 49 38 84q31 25 68 24q39 0 64 -24q18 -20 18 -55q0 -51 -37 -84q-35 -25 -69 -25q-39 0 -62 25q-20 25 -20 55z" />
<glyph unicode="&#xc0;" horiz-adv-x="1163" d="M47 0l635 1331h182l254 -1331h-162l-82 410h-522l-196 -410h-109zM391 494h467l-129 718zM584 1726l131 33l129 -293l-86 -16z" />
<glyph unicode="&#xc1;" horiz-adv-x="1163" d="M47 0l635 1331h182l254 -1331h-162l-82 410h-522l-196 -410h-109zM391 494h467l-129 718zM709 1456l196 297l125 -31l-246 -276z" />
<glyph unicode="&#xc2;" horiz-adv-x="1163" d="M47 0l635 1331h182l254 -1331h-162l-82 410h-522l-196 -410h-109zM391 494h467l-129 718zM516 1565l256 233h82l188 -233l-47 -66l-196 199l-252 -199z" />
<glyph unicode="&#xc3;" horiz-adv-x="1163" d="M47 0l635 1331h182l254 -1331h-162l-82 410h-522l-196 -410h-109zM391 494h467l-129 718zM463 1561q4 6 10 14t27.5 30.5t44 39t59.5 31t74 14.5q68 0 159 -47.5t140 -47.5q33 0 60.5 13.5t39.5 27.5l13 15l38 -52q-2 -4 -7 -11t-22.5 -25.5t-38 -31.5t-53 -24.5 t-67.5 -11.5q-61 0 -155.5 47t-147.5 47q-35 0 -68.5 -20.5t-49.5 -39.5l-15 -20z" />
<glyph unicode="&#xc4;" horiz-adv-x="1163" d="M47 0l635 1331h182l254 -1331h-162l-82 410h-522l-196 -410h-109zM391 494h467l-129 718zM555 1583q0 41 33 74q27 20 55 20q31 0 51 -20q16 -16 17 -47q0 -41 -33 -74q-27 -20 -55 -20q-31 0 -52 20q-16 20 -16 47zM870 1583q0 41 33 74q27 20 55 20q31 0 52 -20 q16 -20 16 -47q0 -41 -33 -74q-27 -20 -57 -20q-29 0 -49 20q-16 20 -17 47z" />
<glyph unicode="&#xc5;" horiz-adv-x="1163" d="M47 0l635 1331h182l254 -1331h-162l-82 410h-522l-196 -410h-109zM391 494h467l-129 718zM600 1565q0 104 60.5 163.5t150.5 59.5q70 0 114 -43t44 -121q0 -102 -59.5 -160.5t-149.5 -58.5q-74 0 -117 41t-43 119zM659 1571q0 -55 30 -84t79 -29q63 0 103 41t40 121 q0 55 -29.5 84t-76.5 29q-63 0 -104.5 -41t-41.5 -121z" />
<glyph unicode="&#xc6;" horiz-adv-x="1615" d="M-25 0l947 1331h764l-13 -98h-565l-72 -512h516l-14 -94h-514l-74 -529h606l-14 -98h-762l58 420h-451l-295 -420h-117zM446 504h404l102 729h-8z" />
<glyph unicode="&#xc7;" horiz-adv-x="1167" d="M178 528q0 362 191.5 592t490.5 230q94 0 187.5 -30t139.5 -58l46 -29l-29 -96q-18 12 -50 30.5t-122 49t-170 30.5q-225 0 -372.5 -189.5t-147.5 -533.5q0 -213 105.5 -327.5t283.5 -114.5q70 0 133.5 20.5t106.5 49t75.5 58.5t48.5 50l15 21l47 -66q-6 -10 -17.5 -25.5 t-53.5 -56.5t-90 -71.5t-129 -56t-169 -25.5h-10l-31 -121l43 -12q43 -11 87 -47t44 -97q0 -96 -62 -156.5t-179 -60.5q-61 0 -105.5 21.5t-57.5 42.5l-13 22l41 41q37 -66 127 -66q158 0 157 154q0 47 -38.5 71.5t-77.5 31t-39 8.5l45 172q-211 20 -331 163.5t-120 380.5z " />
<glyph unicode="&#xc8;" horiz-adv-x="1038" d="M193 0l186 1331h717l-13 -98h-563l-71 -512h516l-15 -94h-514l-74 -529h607l-15 -98h-761zM569 1726l131 33l129 -293l-86 -16z" />
<glyph unicode="&#xc9;" horiz-adv-x="1038" d="M193 0l186 1331h717l-13 -98h-563l-71 -512h516l-15 -94h-514l-74 -529h607l-15 -98h-761zM694 1456l197 297l125 -31l-246 -276z" />
<glyph unicode="&#xca;" horiz-adv-x="1038" d="M193 0l186 1331h717l-13 -98h-563l-71 -512h516l-15 -94h-514l-74 -529h607l-15 -98h-761zM508 1565l256 233h82l188 -233l-47 -66l-196 199l-252 -199z" />
<glyph unicode="&#xcb;" horiz-adv-x="1038" d="M193 0l186 1331h717l-13 -98h-563l-71 -512h516l-15 -94h-514l-74 -529h607l-15 -98h-761zM518 1583q0 41 33 74q27 20 55 20q31 0 51 -20q16 -16 17 -47q0 -41 -33 -74q-27 -20 -55 -20q-31 0 -51 20q-16 20 -17 47zM834 1583q-1 41 32 74q27 20 56 20q31 0 51 -20 q16 -20 16 -47q0 -41 -33 -74q-27 -20 -57 -20q-29 0 -49 20q-16 20 -16 47z" />
<glyph unicode="&#xcc;" horiz-adv-x="542" d="M193 0l186 1331h156l-187 -1331h-155zM262 1726l131 33l129 -293l-86 -16z" />
<glyph unicode="&#xcd;" horiz-adv-x="542" d="M193 0l186 1331h156l-187 -1331h-155zM389 1456l197 297l125 -31l-246 -276z" />
<glyph unicode="&#xce;" horiz-adv-x="542" d="M193 0l186 1331h156l-187 -1331h-155zM203 1565l256 233h82l188 -233l-47 -66l-197 199l-252 -199z" />
<glyph unicode="&#xcf;" horiz-adv-x="542" d="M193 0l186 1331h156l-187 -1331h-155zM236 1583q-1 41 32 74q27 20 56 20q31 0 51 -20q16 -16 16 -47q0 -41 -33 -74q-27 -20 -55 -20q-31 0 -51 20q-16 20 -16 47zM551 1583q0 41 33 74q27 20 55 20q31 0 51 -20q16 -20 17 -47q0 -41 -33 -74q-27 -20 -58 -20 q-29 0 -49 20q-16 20 -16 47z" />
<glyph unicode="&#xd0;" horiz-adv-x="1306" d="M137 618l15 87h139l88 626h405q250 0 385.5 -139t135.5 -404q0 -373 -186.5 -580.5t-520.5 -207.5h-405l86 618h-142zM360 98h254q244 0 385.5 177.5t141.5 529.5q0 211 -94.5 319.5t-274.5 108.5h-252l-74 -528h388l-13 -87h-387z" />
<glyph unicode="&#xd1;" horiz-adv-x="1333" d="M193 0l186 1331h162l526 -1098v50l147 1048h113l-186 -1331h-135l-549 1135h-2l2 -64l-152 -1071h-112zM553 1561q4 6 10 14t27.5 30.5t44 39t59.5 31t74 14.5q68 0 159 -47.5t140 -47.5q33 0 60.5 13.5t39.5 27.5l13 15l39 -52q-2 -4 -7.5 -11t-23 -25.5t-38 -31.5 t-53 -24.5t-67.5 -11.5q-61 0 -155.5 47t-147.5 47q-35 0 -68.5 -20.5t-49.5 -39.5l-15 -20z" />
<glyph unicode="&#xd2;" horiz-adv-x="1339" d="M180 532q0 367 180.5 592.5t487.5 225.5q250 0 374 -151.5t124 -389.5q0 -377 -195 -603t-475 -226q-233 0 -364.5 147t-131.5 405zM342 510q0 -203 90 -317.5t252 -114.5q211 0 354.5 192.5t143.5 554.5q0 188 -85 307t-257 119q-227 0 -362.5 -193.5t-135.5 -547.5z M662 1726l131 33l129 -293l-86 -16z" />
<glyph unicode="&#xd3;" horiz-adv-x="1339" d="M180 532q0 367 180.5 592.5t487.5 225.5q250 0 374 -151.5t124 -389.5q0 -377 -195 -603t-475 -226q-233 0 -364.5 147t-131.5 405zM342 510q0 -203 90 -317.5t252 -114.5q211 0 354.5 192.5t143.5 554.5q0 188 -85 307t-257 119q-227 0 -362.5 -193.5t-135.5 -547.5z M786 1456l197 297l125 -31l-246 -276z" />
<glyph unicode="&#xd4;" horiz-adv-x="1339" d="M180 532q0 367 180.5 592.5t487.5 225.5q250 0 374 -151.5t124 -389.5q0 -377 -195 -603t-475 -226q-233 0 -364.5 147t-131.5 405zM342 510q0 -203 90 -317.5t252 -114.5q211 0 354.5 192.5t143.5 554.5q0 188 -85 307t-257 119q-227 0 -362.5 -193.5t-135.5 -547.5z M602 1565l256 233h82l188 -233l-47 -66l-196 199l-252 -199z" />
<glyph unicode="&#xd5;" horiz-adv-x="1339" d="M180 532q0 367 180.5 592.5t487.5 225.5q250 0 374 -151.5t124 -389.5q0 -377 -195 -603t-475 -226q-233 0 -364.5 147t-131.5 405zM342 510q0 -203 90 -317.5t252 -114.5q211 0 354.5 192.5t143.5 554.5q0 188 -85 307t-257 119q-227 0 -362.5 -193.5t-135.5 -547.5z M543 1561q4 6 10 14t27.5 30.5t44 39t59.5 31t74 14.5q68 0 159 -47.5t140 -47.5q33 0 61.5 13.5t39.5 27.5l11 15l39 -52q-2 -4 -7 -11t-22.5 -25.5t-38 -31.5t-53 -24.5t-67.5 -11.5q-61 0 -155.5 47t-147.5 47q-35 0 -69 -20.5t-49 -39.5l-15 -20z" />
<glyph unicode="&#xd6;" horiz-adv-x="1339" d="M180 532q0 367 180.5 592.5t487.5 225.5q250 0 374 -151.5t124 -389.5q0 -377 -195 -603t-475 -226q-233 0 -364.5 147t-131.5 405zM342 510q0 -203 90 -317.5t252 -114.5q211 0 354.5 192.5t143.5 554.5q0 188 -85 307t-257 119q-227 0 -362.5 -193.5t-135.5 -547.5z M635 1583q0 41 33 74q27 20 57 20q29 0 49 -20q16 -16 17 -47q0 -41 -33 -74q-27 -20 -56 -20q-31 0 -51 20q-16 20 -16 47zM950 1583q0 41 33 74q27 20 55 20q31 0 52 -20q16 -20 16 -47q0 -41 -33 -74q-27 -20 -57 -20q-29 0 -49 20q-16 20 -17 47z" />
<glyph unicode="&#xd7;" horiz-adv-x="722" d="M139 406l250 249l-178 250l74 78l180 -252l252 252l51 -78l-250 -250l178 -249l-71 -76l-181 250l-249 -250z" />
<glyph unicode="&#xd8;" horiz-adv-x="1339" d="M180 532q0 367 180.5 592.5t487.5 225.5q141 0 252 -56l106 197l54 -12l-115 -211q201 -140 201 -459q0 -377 -195 -603t-475 -226q-119 0 -207 36l-121 -223l-53 12l125 234q-240 131 -240 493zM342 510q0 -254 135 -365l565 1043q-84 63 -202 63q-227 0 -362.5 -193.5 t-135.5 -547.5zM522 115q68 -37 162 -37q211 0 354.5 192.5t143.5 554.5q0 211 -101 326z" />
<glyph unicode="&#xd9;" horiz-adv-x="1269" d="M229 346q0 43 7 88l126 897h154l-121 -862q-6 -49 -6 -92q0 -143 69.5 -218t205.5 -75q162 0 260 101.5t123 283.5l120 862h113l-127 -897q-29 -209 -160 -331.5t-362 -122.5q-199 0 -300.5 97t-101.5 269zM662 1726l131 33l129 -293l-86 -16z" />
<glyph unicode="&#xda;" horiz-adv-x="1269" d="M229 346q0 43 7 88l126 897h154l-121 -862q-6 -49 -6 -92q0 -143 69.5 -218t205.5 -75q162 0 260 101.5t123 283.5l120 862h113l-127 -897q-29 -209 -160 -331.5t-362 -122.5q-199 0 -300.5 97t-101.5 269zM748 1456l196 297l125 -31l-246 -276z" />
<glyph unicode="&#xdb;" horiz-adv-x="1269" d="M229 346q0 43 7 88l126 897h154l-121 -862q-6 -49 -6 -92q0 -143 69.5 -218t205.5 -75q162 0 260 101.5t123 283.5l120 862h113l-127 -897q-29 -209 -160 -331.5t-362 -122.5q-199 0 -300.5 97t-101.5 269zM588 1565l256 233h82l188 -233l-47 -66l-197 199l-252 -199z " />
<glyph unicode="&#xdc;" horiz-adv-x="1269" d="M229 346q0 43 7 88l126 897h154l-121 -862q-6 -49 -6 -92q0 -143 69.5 -218t205.5 -75q162 0 260 101.5t123 283.5l120 862h113l-127 -897q-29 -209 -160 -331.5t-362 -122.5q-199 0 -300.5 97t-101.5 269zM625 1583q-1 41 32 74q27 20 56 20q31 0 51 -20q16 -16 16 -47 q0 -41 -32 -74q-27 -20 -56 -20q-31 0 -51 20q-16 20 -16 47zM940 1583q0 41 33 74q27 20 55 20q31 0 51 -20q16 -20 17 -47q0 -41 -33 -74q-27 -20 -57 -20q-29 0 -50 20q-16 20 -16 47z" />
<glyph unicode="&#xdd;" horiz-adv-x="1038" d="M190 1331h175l274 -655l457 655h125l-545 -772l-76 -559h-156l76 551zM672 1456l196 297l125 -31l-245 -276z" />
<glyph unicode="&#xde;" horiz-adv-x="1052" d="M217 0l186 1331h154l-31 -223h172q180 0 278.5 -88t98.5 -262q0 -141 -45 -249t-119.5 -168t-158.5 -89t-177 -29h-174l-30 -223h-154zM416 315h159q150 0 247.5 103.5t97.5 337.5q0 258 -244 258h-164z" />
<glyph unicode="&#xdf;" horiz-adv-x="1120" d="M-172 -487l43 84q33 -33 96 -33q80 0 131 82t78 270l168 1204q31 217 143.5 325.5t290.5 108.5q143 0 223 -65.5t80 -179.5q0 -227 -243 -316q287 -68 286 -399q0 -301 -126 -457.5t-351 -156.5q-76 0 -130 13t-71 26l-16 14l35 86q37 -45 158 -45q160 0 253 135t93 397 q0 168 -79 244t-251 76l4 16l8 82q12 0 30.5 4t67 21.5t85 44t67.5 81t31 123.5q0 78 -45 121t-129 43q-217 0 -264 -342l-168 -1204q-63 -449 -353 -448q-49 0 -84.5 11t-48.5 22z" />
<glyph unicode="&#xe0;" d="M135 391q0 281 138.5 467t379.5 186q49 0 92 -10t68 -23.5t44.5 -31.5t25.5 -27.5t10 -15.5l35 88h119l-144 -1024h-119l-8 119q-12 -18 -29.5 -35.5t-52.5 -44.5t-90 -43t-121 -16q-160 0 -254 108.5t-94 302.5zM291 381q0 -150 63 -225.5t178 -75.5q158 0 250 137 l90 621q-2 4 -7 13t-21.5 26.5t-37 32t-57 25.5t-77.5 11q-186 0 -283.5 -152.5t-97.5 -412.5zM532 1450l132 33l129 -293l-86 -16z" />
<glyph unicode="&#xe1;" d="M135 391q0 281 138.5 467t379.5 186q49 0 92 -10t68 -23.5t44.5 -31.5t25.5 -27.5t10 -15.5l35 88h119l-144 -1024h-119l-8 119q-12 -18 -29.5 -35.5t-52.5 -44.5t-90 -43t-121 -16q-160 0 -254 108.5t-94 302.5zM291 381q0 -150 63 -225.5t178 -75.5q158 0 250 137 l90 621q-2 4 -7 13t-21.5 26.5t-37 32t-57 25.5t-77.5 11q-186 0 -283.5 -152.5t-97.5 -412.5zM659 1180l197 297l125 -31l-246 -277z" />
<glyph unicode="&#xe2;" d="M135 391q0 281 138.5 467t379.5 186q49 0 92 -10t68 -23.5t44.5 -31.5t25.5 -27.5t10 -15.5l35 88h119l-144 -1024h-119l-8 119q-12 -18 -29.5 -35.5t-52.5 -44.5t-90 -43t-121 -16q-160 0 -254 108.5t-94 302.5zM291 381q0 -150 63 -225.5t178 -75.5q158 0 250 137 l90 621q-2 4 -7 13t-21.5 26.5t-37 32t-57 25.5t-77.5 11q-186 0 -283.5 -152.5t-97.5 -412.5zM475 1288l256 234h82l188 -234l-47 -65l-196 198l-252 -198z" />
<glyph unicode="&#xe3;" d="M135 391q0 281 138.5 467t379.5 186q49 0 92 -10t68 -23.5t44.5 -31.5t25.5 -27.5t10 -15.5l35 88h119l-144 -1024h-119l-8 119q-12 -18 -29.5 -35.5t-52.5 -44.5t-90 -43t-121 -16q-160 0 -254 108.5t-94 302.5zM291 381q0 -150 63 -225.5t178 -75.5q158 0 250 137 l90 621q-2 4 -7 13t-21.5 26.5t-37 32t-57 25.5t-77.5 11q-186 0 -283.5 -152.5t-97.5 -412.5zM416 1284q4 6 10 14.5t27.5 31t44 38.5t59.5 30.5t74 14.5q68 0 159 -47t140 -47q33 0 61.5 14.5t39.5 27.5l11 13l39 -51q-2 -4 -7 -11t-22.5 -25.5t-38 -32t-53 -24.5 t-67.5 -11q-61 0 -155.5 47t-147.5 47q-35 0 -69 -19.5t-49 -40.5l-15 -20z" />
<glyph unicode="&#xe4;" d="M135 391q0 281 138.5 467t379.5 186q49 0 92 -10t68 -23.5t44.5 -31.5t25.5 -27.5t10 -15.5l35 88h119l-144 -1024h-119l-8 119q-12 -18 -29.5 -35.5t-52.5 -44.5t-90 -43t-121 -16q-160 0 -254 108.5t-94 302.5zM291 381q0 -150 63 -225.5t178 -75.5q158 0 250 137 l90 621q-2 4 -7 13t-21.5 26.5t-37 32t-57 25.5t-77.5 11q-186 0 -283.5 -152.5t-97.5 -412.5zM508 1307q0 40 33 73q27 20 57 21q29 0 49 -21q16 -16 17 -47q0 -41 -33 -73q-27 -20 -56 -21q-31 0 -51 21q-16 20 -16 47zM823 1307q0 40 33 73q27 20 55 21q31 0 52 -21 q16 -20 16 -47q0 -41 -33 -73q-27 -20 -57 -21q-29 0 -49 21q-16 20 -17 47z" />
<glyph unicode="&#xe5;" d="M135 391q0 281 138.5 467t379.5 186q49 0 92 -10t68 -23.5t44.5 -31.5t25.5 -27.5t10 -15.5l35 88h119l-144 -1024h-119l-8 119q-12 -18 -29.5 -35.5t-52.5 -44.5t-90 -43t-121 -16q-160 0 -254 108.5t-94 302.5zM291 381q0 -150 63 -225.5t178 -75.5q158 0 250 137 l90 621q-2 4 -7 13t-21.5 26.5t-37 32t-57 25.5t-77.5 11q-186 0 -283.5 -152.5t-97.5 -412.5zM559 1288q0 104 60.5 163.5t150.5 59.5q70 0 114 -42.5t44 -120.5q0 -102 -59.5 -161t-149.5 -59q-74 0 -117 41t-43 119zM618 1294q0 -55 30 -83.5t79 -28.5q63 0 103 40.5 t40 120.5q0 55 -29.5 84t-76.5 29q-63 0 -104.5 -41t-41.5 -121z" />
<glyph unicode="&#xe6;" horiz-adv-x="1519" d="M135 391q0 283 142.5 468t398.5 185q182 0 252 -116q129 117 311 116q143 0 226 -77.5t83 -192.5q0 -70 -25.5 -123t-74.5 -86t-102.5 -54.5t-124 -31.5t-125 -13t-121.5 -3h-92q-2 -29 -2 -88q0 -154 74.5 -229.5t199.5 -75.5q51 0 97 12t76 29.5t52.5 36t32.5 30.5 l10 12l54 -49q-4 -6 -12.5 -17t-39 -39t-67.5 -49.5t-98.5 -38.5t-131.5 -17q-223 0 -331 153q-6 -10 -14.5 -21.5t-34 -38t-56 -45t-82 -33.5t-110.5 -15q-172 0 -268.5 107.5t-96.5 303.5zM291 381q0 -150 64.5 -225.5t181.5 -75.5q141 0 229 110q-39 80 -39 203 q0 287 135 463q-61 90 -190 90q-186 0 -283.5 -152.5t-97.5 -412.5zM891 541h88q66 0 118 4t115.5 18.5t104.5 39t69.5 70.5t28.5 109q0 76 -51 125t-143 49q-131 0 -217 -109.5t-113 -305.5z" />
<glyph unicode="&#xe7;" horiz-adv-x="866" d="M137 397q0 299 135.5 473t393.5 174q74 0 143.5 -24.5t101.5 -47.5l33 -24l-26 -84q-104 90 -240 90q-383 0 -383 -575q0 -158 72.5 -233.5t193.5 -75.5q80 0 142.5 29.5t86.5 59.5l23 29l59 -43q-4 -6 -11 -17t-35.5 -40t-63.5 -50.5t-95.5 -39.5t-129.5 -18h-7 l-30 -121l43 -12q43 -11 87 -47t44 -97q0 -96 -62.5 -156.5t-179.5 -60.5q-61 0 -105 21.5t-58 42.5l-13 22l41 41q37 -66 127 -66q158 0 158 154q0 47 -39 71.5t-78 31t-39 8.5l45 172q-158 16 -246 122.5t-88 290.5z" />
<glyph unicode="&#xe8;" horiz-adv-x="927" d="M135 393q0 293 141.5 472t370.5 179q143 0 226 -77.5t83 -192.5q0 -70 -25.5 -123t-74.5 -86t-102.5 -54.5t-124 -31.5t-124.5 -13t-122 -3h-92q-2 -29 -2 -88q0 -154 74.5 -229.5t199.5 -75.5q51 0 97.5 12t76 29.5t52 36t32.5 30.5l10 12l54 -49q-4 -6 -12.5 -17 t-39 -39t-67.5 -49.5t-98.5 -38.5t-130.5 -17q-180 0 -291 106.5t-111 306.5zM299 541h88q66 0 118 4t115.5 18.5t104.5 39t69.5 70.5t28.5 109q0 76 -51 125t-143 49q-131 0 -217 -109.5t-113 -305.5zM471 1450l131 33l129 -293l-86 -16z" />
<glyph unicode="&#xe9;" horiz-adv-x="927" d="M135 393q0 293 141.5 472t370.5 179q143 0 226 -77.5t83 -192.5q0 -70 -25.5 -123t-74.5 -86t-102.5 -54.5t-124 -31.5t-124.5 -13t-122 -3h-92q-2 -29 -2 -88q0 -154 74.5 -229.5t199.5 -75.5q51 0 97.5 12t76 29.5t52 36t32.5 30.5l10 12l54 -49q-4 -6 -12.5 -17 t-39 -39t-67.5 -49.5t-98.5 -38.5t-130.5 -17q-180 0 -291 106.5t-111 306.5zM299 541h88q66 0 118 4t115.5 18.5t104.5 39t69.5 70.5t28.5 109q0 76 -51 125t-143 49q-131 0 -217 -109.5t-113 -305.5zM598 1180l197 297l125 -31l-246 -277z" />
<glyph unicode="&#xea;" horiz-adv-x="927" d="M135 393q0 293 141.5 472t370.5 179q143 0 226 -77.5t83 -192.5q0 -70 -25.5 -123t-74.5 -86t-102.5 -54.5t-124 -31.5t-124.5 -13t-122 -3h-92q-2 -29 -2 -88q0 -154 74.5 -229.5t199.5 -75.5q51 0 97.5 12t76 29.5t52 36t32.5 30.5l10 12l54 -49q-4 -6 -12.5 -17 t-39 -39t-67.5 -49.5t-98.5 -38.5t-130.5 -17q-180 0 -291 106.5t-111 306.5zM299 541h88q66 0 118 4t115.5 18.5t104.5 39t69.5 70.5t28.5 109q0 76 -51 125t-143 49q-131 0 -217 -109.5t-113 -305.5zM414 1288l256 234h82l188 -234l-47 -65l-197 198l-252 -198z" />
<glyph unicode="&#xeb;" horiz-adv-x="927" d="M135 393q0 293 141.5 472t370.5 179q143 0 226 -77.5t83 -192.5q0 -70 -25.5 -123t-74.5 -86t-102.5 -54.5t-124 -31.5t-124.5 -13t-122 -3h-92q-2 -29 -2 -88q0 -154 74.5 -229.5t199.5 -75.5q51 0 97.5 12t76 29.5t52 36t32.5 30.5l10 12l54 -49q-4 -6 -12.5 -17 t-39 -39t-67.5 -49.5t-98.5 -38.5t-130.5 -17q-180 0 -291 106.5t-111 306.5zM299 541h88q66 0 118 4t115.5 18.5t104.5 39t69.5 70.5t28.5 109q0 76 -51 125t-143 49q-131 0 -217 -109.5t-113 -305.5zM444 1307q0 40 33 73q27 20 55 21q31 0 52 -21q16 -16 16 -47 q0 -41 -33 -73q-27 -20 -55 -21q-31 0 -51 21q-16 20 -17 47zM760 1307q0 40 33 73q27 20 55 21q31 0 51 -21q16 -20 16 -47q0 -41 -32 -73q-27 -20 -58 -21q-29 0 -49 21q-16 20 -16 47z" />
<glyph unicode="&#xec;" horiz-adv-x="452" d="M152 0l143 1024h147l-143 -1024h-147zM197 1450l131 33l129 -293l-86 -16z" />
<glyph unicode="&#xed;" horiz-adv-x="452" d="M152 0l143 1024h147l-143 -1024h-147zM324 1180l196 297l125 -31l-246 -277z" />
<glyph unicode="&#xee;" horiz-adv-x="452" d="M143 1288l256 234h82l189 -234l-47 -65l-197 198l-252 -198zM152 0l143 1024h147l-143 -1024h-147z" />
<glyph unicode="&#xef;" horiz-adv-x="452" d="M152 0l143 1024h147l-143 -1024h-147zM174 1307q0 40 33 73q27 20 55 21q31 0 51 -21q16 -16 17 -47q0 -41 -33 -73q-27 -20 -55 -21q-31 0 -52 21q-16 20 -16 47zM489 1307q0 40 33 73q27 20 56 21q31 0 51 -21q16 -20 16 -47q0 -41 -33 -73q-27 -20 -57 -21 q-29 0 -49 21q-16 20 -17 47z" />
<glyph unicode="&#xf0;" horiz-adv-x="1040" d="M139 397q0 307 136.5 477t369.5 170q141 0 236 -94q-33 231 -170 385l-250 -131l-19 53l228 121q-52 49 -111 92l84 46q70 -43 123 -89l176 95l19 -54l-152 -79q223 -229 223 -691q0 -66 -2 -100q-16 -289 -151.5 -453.5t-368.5 -164.5q-184 0 -277.5 113.5t-93.5 303.5z M293 375q0 -307 231 -307q170 0 261.5 147t91.5 424q0 145 -59.5 231t-174.5 86q-170 0 -260 -150.5t-90 -430.5z" />
<glyph unicode="&#xf1;" horiz-adv-x="1046" d="M152 0l143 1024h123l8 -94q115 115 313 114q131 0 202 -63t71 -190q0 -37 -6 -76l-99 -715h-149q94 670 98 696q4 23 4 62q0 178 -186 178q-154 0 -256 -102l-117 -834h-149zM354 1284q4 6 10.5 14.5t28 31t44 38.5t59 30.5t73.5 14.5q68 0 159 -47t140 -47 q33 0 61.5 14.5t40.5 27.5l11 13l39 -51q-2 -4 -7 -11t-22.5 -25.5t-38 -32t-53.5 -24.5t-68 -11q-61 0 -155 47t-148 47q-35 0 -68.5 -19.5t-48.5 -40.5l-16 -20z" />
<glyph unicode="&#xf2;" horiz-adv-x="1026" d="M137 401q0 293 136.5 468t385.5 175q178 0 274.5 -110t96.5 -311q0 -291 -139 -467t-383 -176q-178 0 -274.5 110.5t-96.5 310.5zM291 373q0 -143 58.5 -223t176.5 -80q170 0 260.5 150.5t90.5 428.5q0 145 -58.5 225t-175.5 80q-172 0 -262 -151.5t-90 -429.5zM475 1450 l131 33l129 -293l-86 -16z" />
<glyph unicode="&#xf3;" horiz-adv-x="1026" d="M137 401q0 293 136.5 468t385.5 175q178 0 274.5 -110t96.5 -311q0 -291 -139 -467t-383 -176q-178 0 -274.5 110.5t-96.5 310.5zM291 373q0 -143 58.5 -223t176.5 -80q170 0 260.5 150.5t90.5 428.5q0 145 -58.5 225t-175.5 80q-172 0 -262 -151.5t-90 -429.5zM602 1180 l197 297l125 -31l-246 -277z" />
<glyph unicode="&#xf4;" horiz-adv-x="1026" d="M137 401q0 293 136.5 468t385.5 175q178 0 274.5 -110t96.5 -311q0 -291 -139 -467t-383 -176q-178 0 -274.5 110.5t-96.5 310.5zM291 373q0 -143 58.5 -223t176.5 -80q170 0 260.5 150.5t90.5 428.5q0 145 -58.5 225t-175.5 80q-172 0 -262 -151.5t-90 -429.5zM418 1288 l256 234h82l188 -234l-47 -65l-197 198l-251 -198z" />
<glyph unicode="&#xf5;" horiz-adv-x="1026" d="M137 401q0 293 136.5 468t385.5 175q178 0 274.5 -110t96.5 -311q0 -291 -139 -467t-383 -176q-178 0 -274.5 110.5t-96.5 310.5zM291 373q0 -143 58.5 -223t176.5 -80q170 0 260.5 150.5t90.5 428.5q0 145 -58.5 225t-175.5 80q-172 0 -262 -151.5t-90 -429.5zM358 1284 q4 6 10.5 14.5t28 31t44 38.5t59.5 30.5t73 14.5q68 0 159 -47t140 -47q33 0 62 14.5t40 27.5l11 13l39 -51q-2 -4 -7 -11t-22.5 -25.5t-38 -32t-53.5 -24.5t-67 -11q-61 0 -155.5 47t-148.5 47q-35 0 -68.5 -19.5t-48.5 -40.5l-16 -20z" />
<glyph unicode="&#xf6;" horiz-adv-x="1026" d="M137 401q0 293 136.5 468t385.5 175q178 0 274.5 -110t96.5 -311q0 -291 -139 -467t-383 -176q-178 0 -274.5 110.5t-96.5 310.5zM291 373q0 -143 58.5 -223t176.5 -80q170 0 260.5 150.5t90.5 428.5q0 145 -58.5 225t-175.5 80q-172 0 -262 -151.5t-90 -429.5zM449 1307 q-1 40 32 73q27 20 56 21q31 0 51 -21q16 -16 16 -47q0 -41 -33 -73q-27 -20 -55 -21q-31 0 -51 21q-16 20 -16 47zM764 1307q0 40 33 73q27 20 55 21q31 0 51 -21q16 -20 17 -47q0 -41 -33 -73q-27 -20 -58 -21q-29 0 -49 21q-16 20 -16 47z" />
<glyph unicode="&#xf7;" horiz-adv-x="960" d="M137 471l15 96h821l-15 -96h-821zM401 121q0 49 39 84q31 25 68 24q39 0 63 -24q18 -20 19 -55q0 -51 -37 -84q-33 -25 -70 -25q-41 0 -61.5 24.5t-20.5 55.5zM514 889q0 49 39 84q31 25 68 24q39 0 63 -24q18 -23 18 -55q0 -49 -36 -84q-35 -25 -70 -25q-39 0 -61 25 q-20 25 -21 55z" />
<glyph unicode="&#xf8;" horiz-adv-x="1044" d="M104 -354l201 383q-168 100 -168 372q0 293 136.5 468t385.5 175q94 0 164 -30l168 317l76 -12l-180 -342q143 -106 143 -354q0 -291 -139 -467t-383 -176q-72 0 -139 20l-193 -367zM291 373q0 -162 69 -238l412 783q-57 36 -129 36q-172 0 -262 -151.5t-90 -429.5z M418 92q49 -23 108 -22q170 0 260.5 150t90.5 429q0 137 -52 213z" />
<glyph unicode="&#xf9;" horiz-adv-x="1044" d="M176 238q0 35 6 71l101 715h147l-94 -684q-6 -37 -6 -68q0 -184 182 -184q74 0 138.5 25.5t91.5 52.5l28 27l119 831h149l-145 -1024h-123l-6 98q-119 -119 -313 -118q-131 0 -203 65.5t-72 192.5zM492 1450l131 33l129 -293l-86 -16z" />
<glyph unicode="&#xfa;" horiz-adv-x="1044" d="M176 238q0 35 6 71l101 715h147l-94 -684q-6 -37 -6 -68q0 -184 182 -184q74 0 138.5 25.5t91.5 52.5l28 27l119 831h149l-145 -1024h-123l-6 98q-119 -119 -313 -118q-131 0 -203 65.5t-72 192.5zM618 1180l197 297l125 -31l-246 -277z" />
<glyph unicode="&#xfb;" horiz-adv-x="1044" d="M176 238q0 35 6 71l101 715h147l-94 -684q-6 -37 -6 -68q0 -184 182 -184q74 0 138.5 25.5t91.5 52.5l28 27l119 831h149l-145 -1024h-123l-6 98q-119 -119 -313 -118q-131 0 -203 65.5t-72 192.5zM434 1288l256 234h82l189 -234l-48 -65l-196 198l-252 -198z" />
<glyph unicode="&#xfc;" horiz-adv-x="1044" d="M176 238q0 35 6 71l101 715h147l-94 -684q-6 -37 -6 -68q0 -184 182 -184q74 0 138.5 25.5t91.5 52.5l28 27l119 831h149l-145 -1024h-123l-6 98q-119 -119 -313 -118q-131 0 -203 65.5t-72 192.5zM465 1307q0 40 33 73q27 20 55 21q31 0 51 -21q16 -16 17 -47 q0 -41 -33 -73q-27 -20 -56 -21q-31 0 -51 21q-16 20 -16 47zM780 1307q0 40 33 73q27 20 55 21q31 0 52 -21q16 -20 16 -47q0 -41 -33 -73q-27 -20 -57 -21q-29 0 -49 21q-16 20 -17 47z" />
<glyph unicode="&#xfd;" horiz-adv-x="925" d="M-35 -506l29 94q35 -18 80 -18q49 0 94 28.5t91 93t82 126t89 168.5l-254 1038h176l183 -854l397 854h106l-499 -1038q-119 -248 -225.5 -383t-229.5 -135q-37 0 -66.5 6t-41.5 13zM588 1180l196 297l125 -31l-245 -277z" />
<glyph unicode="&#xfe;" horiz-adv-x="1052" d="M76 -516l289 2048l149 8l-90 -637h4q4 6 10 15.5t32 34t56.5 43t81.5 33.5t111 15q158 0 251 -108.5t93 -300.5q0 -283 -136 -469t-376 -186q-162 0 -244 88l-82 -580zM322 168q59 -90 204 -90q186 0 283.5 151.5t97.5 421.5q0 143 -63.5 218t-179.5 75q-76 0 -138.5 -36 t-88.5 -72l-25 -37h-2z" />
<glyph unicode="&#xff;" horiz-adv-x="925" d="M-35 -506l29 94q35 -18 80 -18q49 0 94 28.5t91 93t82 126t89 168.5l-254 1038h176l183 -854l397 854h106l-499 -1038q-119 -248 -225.5 -383t-229.5 -135q-37 0 -66.5 6t-41.5 13zM434 1307q0 40 33 73q27 20 57 21q29 0 49 -21q16 -16 17 -47q0 -41 -33 -73 q-27 -20 -55 -21q-31 0 -51 21q-16 20 -17 47zM750 1307q-1 40 32 73q27 20 56 21q31 0 51 -21q16 -20 16 -47q0 -41 -33 -73q-27 -20 -57 -21q-29 0 -49 21q-16 20 -16 47z" />
<glyph unicode="&#x152;" horiz-adv-x="1925" d="M180 532q0 367 180.5 592.5t487.5 225.5q264 0 395 -181l23 162h719l-13 -98h-565l-61 -442q0 -25 -5 -70h510l-14 -94h-506q-10 -66 -24 -119l-58 -410h609l-15 -98h-764l21 152q-178 -172 -424 -172q-233 0 -364.5 147t-131.5 405zM342 510q0 -203 90 -317.5 t252 -114.5q170 0 301 130t176 376l13 90v10q8 90 8 141q0 188 -85 307t-257 119q-227 0 -362.5 -193.5t-135.5 -547.5z" />
<glyph unicode="&#x153;" horiz-adv-x="1656" d="M137 401q0 293 136.5 468t385.5 175q242 0 330 -200q143 201 387 200q143 0 226.5 -77.5t83.5 -192.5q0 -70 -26 -123t-75 -86t-102 -54.5t-124 -31.5t-125 -13t-122 -3h-92q-2 -29 -2 -88q0 -154 74.5 -229.5t199.5 -75.5q51 0 97.5 12t76 29.5t52 36t32.5 30.5l11 12 l53 -49q-4 -6 -12.5 -17t-39 -39t-67.5 -49.5t-98.5 -38.5t-130.5 -17q-258 0 -357 198q-143 -199 -401 -198q-178 0 -274.5 110.5t-96.5 310.5zM291 373q0 -143 58.5 -223t176.5 -80q170 0 260.5 150.5t90.5 428.5q0 145 -58.5 225t-175.5 80q-172 0 -262 -151.5 t-90 -429.5zM1028 541h88q66 0 118 4t115.5 18.5t104.5 39t69.5 70.5t28.5 109q0 76 -51 125t-143 49q-131 0 -217 -109.5t-113 -305.5z" />
<glyph unicode="&#x178;" horiz-adv-x="1038" d="M190 1331h175l274 -655l457 655h125l-545 -772l-76 -559h-156l76 551zM510 1583q0 41 33 74q27 20 55 20q31 0 51 -20q16 -16 17 -47q0 -41 -33 -74q-27 -20 -55 -20q-31 0 -52 20q-16 20 -16 47zM825 1583q0 41 33 74q27 20 55 20q31 0 52 -20q16 -20 16 -47 q0 -41 -33 -74q-27 -20 -57 -20q-29 0 -49 20q-16 20 -17 47z" />
<glyph unicode="&#x2c6;" horiz-adv-x="688" d="M260 1288l256 234h82l188 -234l-47 -65l-196 198l-252 -198z" />
<glyph unicode="&#x2dc;" horiz-adv-x="811" d="M258 1284q4 6 10 14.5t27.5 31t44 38.5t59.5 30.5t74 14.5q68 0 159 -47t140 -47q33 0 60.5 14.5t39.5 27.5l13 13l39 -51q-2 -4 -7.5 -11t-22.5 -25.5t-37.5 -32t-53.5 -24.5t-68 -11q-61 0 -155.5 47t-147.5 47q-35 0 -68.5 -19.5t-49.5 -40.5l-15 -20z" />
<glyph unicode="&#x2000;" horiz-adv-x="899" />
<glyph unicode="&#x2001;" horiz-adv-x="1798" />
<glyph unicode="&#x2002;" horiz-adv-x="899" />
<glyph unicode="&#x2003;" horiz-adv-x="1798" />
<glyph unicode="&#x2004;" horiz-adv-x="599" />
<glyph unicode="&#x2005;" horiz-adv-x="449" />
<glyph unicode="&#x2006;" horiz-adv-x="299" />
<glyph unicode="&#x2007;" horiz-adv-x="299" />
<glyph unicode="&#x2008;" horiz-adv-x="224" />
<glyph unicode="&#x2009;" horiz-adv-x="359" />
<glyph unicode="&#x200a;" horiz-adv-x="99" />
<glyph unicode="&#x2010;" horiz-adv-x="608" d="M143 520l15 96h467l-13 -96h-469z" />
<glyph unicode="&#x2011;" horiz-adv-x="608" d="M143 520l15 96h467l-13 -96h-469z" />
<glyph unicode="&#x2012;" horiz-adv-x="608" d="M143 520l15 96h467l-13 -96h-469z" />
<glyph unicode="&#x2013;" horiz-adv-x="962" d="M143 520l15 96h821l-14 -96h-822z" />
<glyph unicode="&#x2014;" horiz-adv-x="1275" d="M143 520l15 96h1136l-14 -96h-1137z" />
<glyph unicode="&#x2018;" horiz-adv-x="288" d="M203 1112q0 98 72.5 233.5t168.5 204.5l37 -45q-74 -59 -126 -153.5t-60 -171.5h8q33 0 53 -19q16 -20 17 -47q0 -45 -35 -76q-27 -23 -59 -22q-31 -1 -54 22q-2 0 -2 2q-20 23 -20 72z" />
<glyph unicode="&#x2019;" horiz-adv-x="288" d="M150 1055q76 59 128 153.5t60 169.5h-6q-33 0 -53 21q-16 18 -17 49q0 47 33 74q27 23 59 22q31 0 54 -22l6 -13l6 -10l1 -2l1 -2q8 -29 8 -49q0 -96 -72.5 -231.5t-169.5 -206.5z" />
<glyph unicode="&#x201a;" horiz-adv-x="288" d="M-37 -287q74 59 126 152.5t61 171.5h-9q-33 0 -51 20q-16 18 -16 49q-1 47 32 74q23 20 60 21q35 0 53 -21q0 -2 3 -6t5 -8q4 -4 4 -8q0 -2 1 -2t1 -2q8 -29 9 -50q0 -96 -73 -231t-169 -207z" />
<glyph unicode="&#x201c;" horiz-adv-x="593" d="M203 1112q0 98 72.5 233.5t168.5 204.5l37 -45q-74 -59 -126 -153.5t-60 -171.5h8q33 0 53 -19q16 -20 17 -47q0 -45 -35 -76q-27 -23 -59 -22q-31 0 -54 22q-23 27 -22 74zM506 1112q0 98 72.5 233.5t169.5 204.5l36 -45q-74 -59 -126 -153.5t-60 -171.5h8q33 0 53 -19 q16 -20 17 -47q0 -45 -35 -76q-27 -23 -59 -22q-31 -1 -54 22q-2 0 -2 2q-20 23 -20 72z" />
<glyph unicode="&#x201d;" horiz-adv-x="593" d="M150 1055q76 59 128 153.5t60 169.5h-6q-33 0 -53 21q-16 18 -17 49q0 47 33 74q27 23 59 22q31 0 54 -22l6 -13l6 -10l1 -2l1 -2q8 -29 8 -49q0 -96 -72.5 -231.5t-169.5 -206.5zM453 1055q76 59 128 153.5t60 169.5h-6q-33 0 -53 21q-16 18 -17 49q0 47 33 74 q27 23 59 22q31 0 54 -22l6 -13l6 -10l1 -2l1 -2q8 -29 8 -49q0 -96 -72.5 -231.5t-168.5 -206.5z" />
<glyph unicode="&#x201e;" horiz-adv-x="593" d="M-37 -287q74 59 126 152.5t61 171.5h-9q-33 0 -51 20q-16 18 -16 49q-1 47 32 74q23 20 60 21q35 0 53 -21q0 -2 3 -6t5 -8q4 -4 4 -8q0 -2 1 -2t1 -2q8 -29 9 -50q0 -96 -73 -231t-169 -207zM266 -287q74 59 126 152.5t61 171.5h-9q-33 0 -51 20q-16 18 -16 49 q0 47 33 74q23 20 59 21q35 0 53 -21q0 -2 3 -6t5 -8q4 -4 5 -8q0 -2 1 -2t1 -2q8 -29 8 -50q0 -96 -73 -231t-169 -207z" />
<glyph unicode="&#x2022;" horiz-adv-x="614" d="M231 631q0 92 66 147q53 41 115 41q63 0 104 -41q33 -35 33 -94q0 -90 -66 -145q-49 -41 -116 -41q-66 0 -105 41q-31 37 -31 92z" />
<glyph unicode="&#x2026;" horiz-adv-x="1357" d="M162 61q0 49 39 84q31 25 67 25q39 0 64 -25q18 -20 18 -55q0 -49 -37 -84q-35 -25 -69 -24q-39 0 -62 24q-20 25 -20 55zM592 61q0 49 39 84q31 25 67 25q39 0 64 -25q18 -23 18 -55q0 -49 -37 -84q-35 -25 -69 -24q-39 0 -62 24q-20 25 -20 55zM1022 61q0 49 39 84 q31 25 67 25q39 0 64 -25q18 -20 18 -55q0 -49 -36 -84q-35 -25 -70 -24q-39 0 -62 24q-20 25 -20 55z" />
<glyph unicode="&#x202f;" horiz-adv-x="359" />
<glyph unicode="&#x2039;" horiz-adv-x="661" d="M242 512l366 350l39 -53l-264 -299l178 -303l-53 -55z" />
<glyph unicode="&#x203a;" horiz-adv-x="661" d="M154 205l264 295l-178 307l53 55l266 -362l-364 -348z" />
<glyph unicode="&#x205f;" horiz-adv-x="449" />
<glyph unicode="&#x20ac;" horiz-adv-x="1167" d="M160 469l12 82h113q4 117 16 192l-102 7l12 79h104q117 518 600 519q92 0 176.5 -27t121.5 -52l38 -26l-32 -92q-14 10 -40 27.5t-105 45t-156 27.5q-358 0 -445 -422h524l-14 -90h-526q-12 -113 -15 -188h514l-12 -90h-502q8 -389 342 -389q98 0 182.5 42t118.5 83 l35 41l23 -68q-4 -8 -14.5 -20.5t-46 -45t-78.5 -58.5t-113 -46t-148 -20q-217 0 -332.5 126.5t-125.5 356.5z" />
<glyph unicode="&#x2122;" horiz-adv-x="1538" d="M324 1462l12 74h223v-2h92v2h260l-12 -74h-258l-90 -643h-92l90 643h-225zM856 819l137 717h97l118 -631l320 631h90l-80 -717h-90l61 561l-284 -561h-80l-121 578l-98 -578h-70z" />
<glyph unicode="&#xe000;" horiz-adv-x="1025" d="M0 1025h1025v-1025h-1025v1025z" />
<glyph unicode="&#xfb01;" horiz-adv-x="1073" d="M-168 -487l43 84q33 -33 96 -33q80 0 131.5 82t77.5 270l142 1008h-105l12 86l107 12l20 147q29 199 117 292t268 93q168 0 267 -155q16 8 39 8q37 0 57 -21q16 -18 16 -53q0 -45 -35 -80q-33 -23 -65 -22q-37 0 -55 22q-18 20 -19 54q0 23 10 47q-76 106 -196.5 106 t-176 -65.5t-79.5 -241.5l-19 -129h297l-14 -100h-297l-141 -1008q-63 -449 -353 -448q-49 0 -84.5 11t-48.5 22zM772 0l143 1024h148l-143 -1024h-148z" />
<glyph unicode="&#xfb02;" horiz-adv-x="1067" d="M-168 -487l43 84q33 -33 96 -33q80 0 131.5 82t77.5 270l142 1008h-107l12 86l109 12l20 147q55 385 322 385q135 0 295 -81l8 59l149 8l-215 -1540h-149l192 1382q-143 80 -253 80q-86 0 -131.5 -67.5t-69.5 -241.5l-19 -129h295l-14 -100h-295l-141 -1008 q-63 -449 -353 -448q-49 0 -84.5 11t-48.5 22z" />
<glyph unicode="&#xfb03;" horiz-adv-x="1728" d="M1428 0l143 1024h147l-143 -1024h-147zM1600 1310q0 46 36 74q25 23 64 23q37 0 57 -21q16 -18 17 -53q0 -45 -35 -80q-32 -22 -63 -22h-3q-37 0 -55 22q-9 10 -13.5 24.5t-4.5 32.5zM470 -487l43 84q33 -33 96 -33q80 0 131 82t78 270l142 1008h-107l12 86l109 12 l20 147q29 199 104 292t220 93q49 0 95 -15t69 -30l22 -14l-32 -80q-61 47 -141.5 47t-122.5 -65.5t-66 -243.5l-19 -129h295l-14 -100h-295l-141 -1008q-63 -448 -352 -448h-1q-49 0 -84.5 11t-48.5 22zM-168 -487l43 84q33 -33 96 -33q80 0 131 82t78 270l142 1008h-107 l12 86l109 12l20 147q29 199 104 292t220 93q49 0 95 -15t69 -30l22 -14l-32 -80q-61 47 -141.5 47t-122.5 -65.5t-66 -243.5l-19 -129h295l-14 -100h-295l-141 -1008q-63 -448 -352 -448h-1q-49 0 -84.5 11t-48.5 22z" />
<glyph unicode="&#xfb04;" horiz-adv-x="1728" d="M1428 0l215 1532l149 8l-215 -1540h-149zM470 -487l43 84q33 -33 96 -33q80 0 131 82t78 270l142 1008h-107l12 86l109 12l20 147q29 199 104 292t220 93q49 0 95 -15t69 -30l22 -14l-32 -80q-61 47 -141.5 47t-122.5 -65.5t-66 -243.5l-19 -129h295l-14 -100h-295 l-141 -1008q-63 -448 -352 -448h-1q-49 0 -84.5 11t-48.5 22zM-168 -487l43 84q33 -33 96 -33q80 0 131 82t78 270l142 1008h-107l12 86l109 12l20 147q29 199 104 292t220 93q49 0 95 -15t69 -30l22 -14l-32 -80q-61 47 -141.5 47t-122.5 -65.5t-66 -243.5l-19 -129h295 l-14 -100h-295l-141 -1008q-63 -448 -352 -448h-1q-49 0 -84.5 11t-48.5 22z" />
</font>
</defs>
</svg>
