<?xml version="1.0" standalone="no"?>
<!DOCTYPE svg PUBLIC "-//W3C//DTD SVG 1.1//EN" "http://www.w3.org/Graphics/SVG/1.1/DTD/svg11.dtd" >
<svg xmlns="http://www.w3.org/2000/svg">
<metadata>
This is a custom SVG webfont generated by Font Squirrel.
Copyright   : Copyright c 2004 by TypeFaithfonts Leon Hulst WAT ontwerpers All rights reserved
Designer    : Leon Hulst
Foundry     : TypeFaithfonts Leon Hulst WAT ontwerpers
</metadata>
<defs>
<font id="PaloAltoHeavy" horiz-adv-x="1290" >
<font-face units-per-em="2048" ascent="1638" descent="-410" />
<missing-glyph horiz-adv-x="645" />
<glyph unicode=" "  horiz-adv-x="645" />
<glyph unicode="&#x09;" horiz-adv-x="645" />
<glyph unicode="&#xa0;" horiz-adv-x="645" />
<glyph unicode="!" horiz-adv-x="606" d="M-70 47l76 287q4 20 21.5 33.5t35.5 13.5h291q18 0 27.5 -13.5t5.5 -33.5l-78 -287q-4 -20 -21.5 -33.5t-35.5 -13.5h-289q-18 0 -27.5 13.5t-5.5 33.5zM90 483q25 88 49.5 191.5t52 223.5t57.5 260t60 304h379q-55 -164 -101 -304t-83 -260t-66.5 -223.5t-54.5 -191.5 h-293z" />
<glyph unicode="&#x22;" horiz-adv-x="1024" d="M27 725l198 737h295l-198 -737h-295zM502 725l198 737h295l-198 -737h-295z" />
<glyph unicode="#" d="M47 0l158 389h-152l58 215h182l92 225h-152l58 215h182l156 383h235l-155 -383h165l156 383h236l-156 -383h127l-57 -215h-158l-92 -225h127l-58 -215h-157l-158 -389h-235l157 389h-166l-157 -389h-236zM528 604h166l92 225h-165z" />
<glyph unicode="$" d="M-150 72l5 14q4 14 12 40t16 57.5t19 66.5l49 180q33 -18 88 -49t123.5 -59.5t147.5 -51t159 -24.5q31 0 84 3t106.5 17.5t98.5 45t59 83.5q10 39 -18.5 66.5t-82.5 48t-125 39t-144.5 43t-141 57.5t-114 82t-64.5 119t8 166q27 98 93.5 172t154.5 125t188.5 80.5 t194.5 42.5l51 192h168l-49 -186q150 -4 267.5 -24.5t187.5 -43.5l-8 -25q-7 -26 -17 -64t-22.5 -82t-22.5 -81t-17 -61l-8 -25q-29 25 -81 48.5t-113.5 42t-128 29.5t-125.5 11q-33 0 -84 -1t-102.5 -12t-92.5 -36.5t-53 -73.5q-12 -43 17.5 -70.5t84 -49t125 -41 t144.5 -43t142.5 -55t115.5 -79t65.5 -115t-6.5 -161.5q-29 -109 -90 -190.5t-147 -137t-193.5 -87t-230.5 -42.5l-51 -188h-168l49 186q-121 4 -216.5 19.5t-163 34t-104.5 33t-39 14.5z" />
<glyph unicode="%" horiz-adv-x="2086" d="M222 895q-1 72 22 158q23 84 63.5 155.5t98 124.5t131 83t163.5 30t149.5 -28.5t88.5 -80t31 -124t-23 -160.5q-23 -86 -61.5 -159t-96 -125t-131 -81t-168.5 -29q-92 0 -150 29t-87 82t-30 125zM326 -55l1239 1538h202l-1239 -1538h-202zM458 908q1 -36 17.5 -60.5 t59.5 -24.5q41 0 69.5 24.5t49 60.5t32.5 75t21 70q8 31 16 69.5t8 74.5t-16.5 60.5t-57.5 24.5q-43 0 -72.5 -24.5t-49 -60.5t-31.5 -75t-21 -69q-8 -31 -17 -70t-8 -75zM1119 217q-1 72 22 158q23 84 63.5 155.5t99 125t132 83t163.5 29.5t148.5 -28.5t88.5 -80t31 -124 t-24 -160.5q-23 -86 -61.5 -159t-95 -125t-131 -80.5t-166.5 -28.5q-94 0 -152.5 28.5t-87.5 81.5t-30 125zM1357 230.5q1 -35.5 16.5 -60.5t58.5 -25q41 0 70.5 25t49 60.5t31.5 74.5t21 70q8 31 17 69.5t8 74.5t-17.5 60.5t-57.5 24.5q-43 0 -71.5 -24.5t-49 -60.5 t-32.5 -74.5t-21 -69.5q-8 -31 -16 -70t-7 -74.5z" />
<glyph unicode="&#x26;" horiz-adv-x="1478" d="M-11.5 199q-25.5 86 9.5 217q20 82 66.5 147.5t106.5 117.5t130 91t141 70q-14 27 -29.5 53.5t-25.5 59t-11 73.5t13 94q18 72 64.5 139.5t114 119t153.5 82t184 30.5q88 0 155.5 -27.5t110.5 -78t56.5 -120t-8.5 -153.5q-12 -41 -35 -87t-63 -94t-101.5 -94t-149.5 -87 l162 -273q98 82 191 187l141 -226q-104 -111 -199 -184l105 -172l-303 -205l-103 182q-115 -51 -220 -71.5t-206 -20.5q-102 0 -196.5 20.5t-161 72t-92 137.5zM331 352q9 -35 35.5 -56.5t64.5 -30.5t83 -9q106 0 219 41l-186 332q-29 -10 -60.5 -25.5t-62.5 -39 t-54.5 -54.5t-35.5 -74q-12 -49 -3 -84zM699.5 1069q7.5 -33 19.5 -59q14 -31 37 -56q41 18 78 45q31 23 61.5 55.5t42.5 80.5q16 59 -14.5 85.5t-77.5 26.5t-89 -30.5t-55 -77.5q-10 -37 -2.5 -70z" />
<glyph unicode="'" horiz-adv-x="606" d="M188 725l199 737h295l-199 -737h-295z" />
<glyph unicode="(" horiz-adv-x="606" d="M-1 94.5q3 108.5 21.5 222t51.5 244.5q39 137 81 253t97 225.5t127 220t168 233.5h325q-160 -213 -285.5 -448.5t-187.5 -483.5q-70 -238 -68.5 -471t48.5 -446h-326q-29 123 -42 232.5t-10 218z" />
<glyph unicode=")" horiz-adv-x="606" d="M-264 -356q80 106 151.5 217.5t132 228.5t107.5 234.5t78 236.5q72 248 70.5 483.5t-48.5 448.5h326q31 -123 43 -233.5t9 -220t-22.5 -225.5t-52.5 -253q-37 -131 -79.5 -244.5t-97 -222t-126 -218t-168.5 -232.5h-323z" />
<glyph unicode="*" horiz-adv-x="909" d="M51 1096q-6 23 2 51.5t23.5 56t39 50t48.5 34.5q27 12 64.5 -3t72.5 -38q41 -27 84 -65q2 66 10 121q6 47 18.5 93t35.5 64t52 27.5t58 9.5t54.5 -9t37.5 -28q14 -18 3 -64t-29 -93q-23 -55 -56 -119q63 37 119 63q47 23 93 37t67 2q20 -12 30.5 -34.5t11.5 -50 t-7.5 -56.5t-26.5 -51q-16 -23 -63.5 -36.5t-96.5 -19.5q-57 -8 -127 -10q41 -45 70 -84q25 -35 41 -71.5t6 -61.5t-32.5 -48.5t-50.5 -40.5t-57.5 -25.5t-53.5 -4.5q-25 4 -41.5 41t-26.5 80q-12 51 -18 115q-43 -63 -80 -115q-33 -43 -69 -81t-60 -42q-27 -4 -52.5 5.5 t-44 25.5t-30 39.5t-7.5 50.5q2 25 40 61.5t83 71.5q53 39 117 82q-68 4 -121 12q-47 8 -87 21.5t-44 36.5z" />
<glyph unicode="+" horiz-adv-x="1228" d="M57 371l80 295h369l98 370h295l-98 -370h368l-79 -295h-369l-98 -371h-295l98 371h-369z" />
<glyph unicode="," horiz-adv-x="647" d="M33 -356l45 163q88 23 138 68t81 125h-123q-18 0 -27.5 13.5t-5.5 33.5l78 287q4 20 21.5 33.5t35.5 13.5h291q18 0 27.5 -13.5t5.5 -33.5l-78 -291q-31 -111 -88 -184.5t-126.5 -119.5t-142.5 -67.5t-132 -27.5z" />
<glyph unicode="-" horiz-adv-x="833" d="M57 410l80 295h637l-80 -295h-637z" />
<glyph unicode="." horiz-adv-x="647" d="M94 47l76 287q6 20 22.5 33.5t34.5 13.5h291q18 0 28.5 -13.5t4.5 -33.5l-76 -287q-6 -20 -22.5 -33.5t-34.5 -13.5h-291q-18 0 -28.5 13.5t-4.5 33.5z" />
<glyph unicode="/" horiz-adv-x="833" d="M-199 0l934 1493l301 -27l-940 -1497z" />
<glyph unicode="0" d="M64.5 439q5.5 132 41.5 276q37 143 102.5 275t160 233.5t217.5 162t274 60.5q156 0 250 -60.5t137 -162t40 -233.5t-40 -275q-39 -143 -106.5 -275.5t-164.5 -234t-224 -162.5t-283 -61q-152 0 -242 61t-129 162.5t-33.5 233.5zM392 404.5q3 -72.5 37 -122t118 -49.5 q86 0 146.5 49.5t102.5 122t69.5 156.5t45.5 154t36 153.5t14.5 155.5t-38 121t-120.5 49q-84 0 -143.5 -49t-101.5 -121t-69.5 -156t-46.5 -153q-18 -70 -35.5 -154t-14.5 -156.5z" />
<glyph unicode="1" d="M262 940l88 322q262 102 463 146t315 44l-387 -1452h-346l293 1094q-51 -6 -165 -41t-261 -113z" />
<glyph unicode="2" d="M-96 0q18 68 42.5 122t56.5 101t72 89t91 89q59 51 135 103.5t157 103.5t160.5 102.5t145 101.5t111 98t57.5 96q14 51 2 86.5t-41 56t-69 28t-79 5.5q-78 -4 -153.5 -17.5t-142 -32t-123 -39t-97.5 -38.5l7 23q6 24 15 58.5t19.5 74.5t19.5 75t14 57l5 23q2 0 40 13.5 t104.5 28.5t156.5 27.5t195 12.5q135 0 239.5 -25.5t169 -79t86 -136.5t-9.5 -199q-25 -92 -82 -172t-172 -164q-90 -66 -170 -117t-149.5 -94t-127 -83t-104.5 -83h639l-77 -295h-1143z" />
<glyph unicode="3" d="M-57 61l82 314q37 -20 85 -43t102 -41.5t113.5 -30.5t120.5 -12q139 0 233.5 43t123.5 151q23 84 -7 124t-89.5 54.5t-136 13.5t-146.5 1l63 237q72 0 139.5 -3t125 9.5t99.5 46t62 107.5q16 59 -3 90t-57 45.5t-83 15.5t-82 1q-104 0 -217 -28t-207 -62l78 292 q57 16 127 31q59 10 138 20.5t169 10.5q147 0 252 -29.5t166 -84t80.5 -130.5t-4.5 -166q-23 -86 -90.5 -160.5t-165.5 -109.5q86 -51 123 -137t4 -209q-25 -94 -78 -175t-140 -139.5t-211 -91t-290 -32.5q-180 0 -300 27t-179 50z" />
<glyph unicode="4" d="M0 317l59 234q14 47 38 87t67 81q25 25 108.5 106.5t212.5 198.5q55 51 129 119.5t145.5 132t132 107.5t91.5 44h285l-219 -815h186l-78 -295h-186l-86 -317h-348l86 317h-623zM346 612h365l125 461h-5q-55 -49 -104 -92q-41 -37 -82 -75t-63 -58q-25 -23 -64 -62 l-78 -77q-45 -46 -94 -97z" />
<glyph unicode="5" d="M-25 61l82 314q37 -20 85 -43t103.5 -41.5t115 -30.5t120.5 -12t116.5 9t101.5 33.5t80 68.5t52 112q16 61 5 102t-43.5 65t-83 34t-111.5 10q-72 0 -141.5 -3t-125 -7t-90 -6t-40.5 -2l319 763h860l-77 -294h-584l-88 -218q12 4 55 8.5t98.5 2.5t117 -13.5t114.5 -35.5 q70 -35 109.5 -81t57 -101.5t13.5 -115t-20 -120.5q-27 -102 -80.5 -188.5t-140.5 -150t-209.5 -99t-290.5 -37.5q-90 -2 -165 6t-135.5 20.5t-105.5 25.5t-74 25z" />
<glyph unicode="6" d="M56.5 346q-13.5 113 23.5 250q33 125 90 229.5t128 191.5t149.5 155.5t156.5 121.5q182 125 389 199l158 -193q-45 -18 -107.5 -48.5t-135 -77t-150.5 -106.5t-152 -138v-4q23 8 45.5 18t51 17.5t65.5 12.5t90 5q98 0 173 -37t120 -101.5t57.5 -149.5t-14.5 -183 q-35 -127 -105.5 -225.5t-166 -165t-208 -100t-229.5 -33.5q-123 0 -215 44t-146 124.5t-67.5 193.5zM395 481q-25 -92 20.5 -154.5t147.5 -62.5q55 0 104.5 18.5t89.5 48t67.5 69.5t39.5 83q29 100 -16 170t-164 70t-189.5 -61.5t-95.5 -153.5z" />
<glyph unicode="7" d="M59 45q414 494 618 768t208 297l2 2h-623l84 318h1098q-80 -121 -176 -261q-82 -119 -191.5 -272.5t-232.5 -318.5q-55 -74 -115 -153l-119 -158q-59 -79 -119.5 -154.5t-115.5 -145.5z" />
<glyph unicode="8" d="M-12.5 211q-30.5 84 4.5 209q16 61 51 118.5t83 102.5t106.5 76t121.5 41l2 4q-96 25 -129.5 106.5t-5.5 184.5q29 106 97.5 181t158.5 122t189.5 68.5t189.5 21.5q92 0 179 -21.5t150.5 -69.5t91.5 -123t-1 -181q-12 -49 -40 -96.5t-65.5 -86.5t-85 -67.5t-98.5 -38.5 l-2 -4q117 -25 166 -114t12 -224q-31 -119 -104.5 -202t-170.5 -135t-208 -76.5t-217 -24.5q-104 0 -203.5 21.5t-170.5 72.5t-101.5 135zM338 346q10 -35 37.5 -59.5t66.5 -36.5t86 -12q45 0 91.5 12t86 36.5t69.5 59.5t42 82q18 70 -5.5 113t-60 66.5t-72.5 31.5t-38 8 q-4 0 -44 -8t-90 -31.5t-99.5 -66.5t-67.5 -113q-12 -47 -2 -82zM526 1036q-16 -59 6.5 -94t57.5 -53.5t67.5 -24.5t36.5 -6t41 6t82 24.5t87 53.5t59 94q10 37 -1.5 65.5t-36 48t-61.5 30t-80 10.5t-85 -9.5t-76.5 -28.5t-60.5 -48t-36 -68z" />
<glyph unicode="9" d="M153.5 740q-12.5 85 14.5 184q33 127 104.5 225t167 164.5t208 100.5t229.5 34q123 0 215 -44t147 -125t67.5 -193.5t-24.5 -249.5q-35 -125 -91 -230.5t-127 -191.5t-149.5 -155t-156.5 -122q-182 -125 -389 -198l-158 192q45 18 107.5 49t135 77t150.5 106.5t152 138.5 v4q-23 -10 -45.5 -19.5t-51 -16.5t-66.5 -12t-89 -5q-98 0 -173 36.5t-120 101t-57.5 149.5zM498 948q-29 -100 16 -169.5t164 -69.5t189.5 61t95.5 154l4 26q25 92 -20.5 154.5t-147.5 62.5q-55 0 -104.5 -18.5t-89.5 -48t-67.5 -69.5t-39.5 -83z" />
<glyph unicode=":" horiz-adv-x="647" d="M2 47l78 287q4 20 21.5 33.5t35.5 13.5h291q18 0 27.5 -13.5t5.5 -33.5l-78 -287q-4 -20 -21.5 -33.5t-35.5 -13.5h-291q-18 0 -27.5 13.5t-5.5 33.5zM184 729l78 287q4 20 21.5 33.5t35.5 13.5h291q18 0 27.5 -13.5t5.5 -33.5l-78 -287q-4 -20 -21.5 -33.5t-35.5 -13.5 h-291q-18 0 -27.5 13.5t-5.5 33.5z" />
<glyph unicode=";" horiz-adv-x="647" d="M-55 -356q57 6 129.5 27.5t141.5 67.5t126 119.5t88 184.5l78 291q4 20 -5 33.5t-28 13.5h-291q-18 0 -35.5 -13.5t-21.5 -33.5l-78 -287q-4 -20 5 -33.5t28 -13.5h123q-31 -80 -80 -125t-137 -68zM233 729l76 287q6 20 22.5 33.5t35.5 13.5h290q18 0 28.5 -13.5 t4.5 -33.5l-76 -287q-6 -20 -22.5 -33.5t-34.5 -13.5h-291q-18 0 -28.5 13.5t-4.5 33.5z" />
<glyph unicode="&#x3c;" horiz-adv-x="1228" d="M53 373l80 291l1143 389l-84 -316l-686 -217l-2 -4l571 -217l-84 -315z" />
<glyph unicode="=" horiz-adv-x="1228" d="M-8 117l78 295h1032l-80 -295h-1030zM125 625l80 295h1032l-80 -295h-1032z" />
<glyph unicode="&#x3e;" horiz-adv-x="1228" d="M-47 -16l82 315l686 217l2 4l-571 217l84 316l938 -389l-80 -291z" />
<glyph unicode="?" horiz-adv-x="1175" d="M152 47l75 287q6 20 22.5 33.5t35.5 13.5h290q18 0 28.5 -13.5t4.5 -33.5l-76 -287q-6 -20 -23 -33.5t-36 -13.5h-291q-18 0 -27 13.5t-3 33.5zM197 1143l8 32q8 32 18 74.5t20.5 84.5t16.5 65q4 14 59.5 31.5t134 33t165 25.5t149.5 10q88 0 179 -19.5t161 -60.5 t104.5 -106.5t10.5 -159.5q-16 -66 -63.5 -116t-108 -94t-130 -85t-131 -87t-109.5 -101.5t-67 -126.5q-4 -16 -5 -31.5t3 -28.5h-327q0 57 12 101q23 84 69 148.5t103 114.5t118.5 90t114 76t91 71.5t49.5 76.5q8 33 -7.5 51.5t-43 27.5t-62.5 10t-63 1q-53 0 -120 -10 t-131.5 -25.5t-122.5 -35t-95 -37.5z" />
<glyph unicode="@" horiz-adv-x="1638" d="M49 407.5q-29 141.5 21 323.5q49 180 152.5 322.5t238.5 240t291.5 148.5t310.5 51t282 -50t214 -149q47 -55 72.5 -114.5t33.5 -120t3 -117.5t-19 -108q-47 -174 -143.5 -275.5t-216.5 -154t-251 -66.5t-243 -14q-98 0 -184.5 19t-145.5 62.5t-83 114t3 172.5t82 182 t133 134.5t175 83t210 28.5q135 0 220 -21.5t110 -41.5l-221 -506q41 6 89 21.5t94 48t85 88t61 141.5q27 98 -0.5 180t-89 141.5t-146.5 93t-175 33.5q-111 0 -224.5 -42t-213 -116.5t-174 -179t-107.5 -229.5q-35 -125 -15.5 -229.5t78 -179t149.5 -116.5t202 -42 q104 0 186 6t140.5 12t90 11.5t31.5 3.5l-82 -197q2 0 -21.5 -5t-73.5 -10t-130 -10.5t-193 -5.5q-154 0 -282.5 51.5t-211.5 148.5t-112 238.5zM627 725q-31 -86 4 -131t110 -45h78q23 0 43 2l148 338q-10 2 -29 4q-16 2 -41 3t-59 1q-90 0 -157.5 -44t-96.5 -128z" />
<glyph unicode="A" horiz-adv-x="1355" d="M-205 0l936 1462h387l156 -1462h-397l-19 272h-510l-164 -272h-389zM510 545h332l-25 512h-4z" />
<glyph unicode="B" horiz-adv-x="1439" d="M-20 29l368 1382q76 23 168 41q78 16 185.5 29.5t236.5 13.5q141 0 250.5 -31.5t180.5 -88t97 -135.5q14 -41 14 -86q0 -42 -12 -87q-27 -96 -98.5 -160.5t-140.5 -103.5q47 -23 79.5 -59.5t50 -83t19.5 -98.5q0 -7 1 -13q0 -46 -13 -92q-31 -111 -104.5 -201 t-179 -153.5t-236.5 -97.5t-277 -34q-135 0 -244.5 8.5t-186.5 19.5t-118 20zM420 258q23 -4 53 -8q25 -4 59.5 -6t75.5 -2q70 0 134.5 13t116.5 40t89 66.5t51 95.5q11 39 11 68q0 33 -14 55q-26 39 -90 53q-56 13 -138 12h-24q-49 -1 -103.5 -1t-116.5 1zM590 889 q72 0 150 -3q17 -1 34 -1q60 0 114 9q69 11 122 45t71 108q8 28 8 50q0 26 -10 45q-18 36 -53 56.5t-79 26.5t-81 6q-76 0 -133 -13.5t-59 -13.5z" />
<glyph unicode="C" horiz-adv-x="1398" d="M45 421q-3 33 -3 68q0 116 36 252q45 170 135 309.5t213 239t275.5 153.5t324.5 54q113 0 192.5 -11t138 -26.5t102.5 -33t83 -31.5l-86 -324q-47 23 -101.5 49.5t-113.5 48t-122.5 36t-129.5 14.5q-102 0 -188 -42t-154.5 -112t-117 -157t-72.5 -179q-24 -88 -24 -172 q0 -92 33 -162q32 -68 96.5 -107.5t166.5 -39.5q66 0 137.5 14t142 37t139.5 49.5t128 50.5l-88 -325q-47 -12 -99.5 -30.5t-120 -34t-152.5 -27t-198 -11.5q-172 0 -295.5 53.5t-193.5 154t-84 242.5z" />
<glyph unicode="D" horiz-adv-x="1507" d="M-20 29l368 1382q0 -2 41 11.5t117 29.5t185.5 29.5t244.5 13.5q186 0 316 -55.5t204 -154.5t88 -238q3 -34 4 -69q0 -111 -35 -241q-49 -182 -129.5 -323.5t-200.5 -239.5t-280 -149.5t-362 -53.5q-98 0 -198.5 8.5t-180.5 18.5t-131 20zM420 260l16 -4q16 -4 42 -8 t59.5 -6t66.5 -2q115 0 199 31.5t146.5 94t106.5 154.5t77 213q10 41 19 93q8 47 8 97v11q-1 55 -14 108.5t-45 95.5t-88.5 67.5t-140.5 25.5q-37 0 -71.5 -3t-63.5 -7l-61 -11z" />
<glyph unicode="E" horiz-adv-x="1390" d="M-20 0l389 1462h1165l-72 -270h-784l-82 -305h717l-74 -271h-717l-90 -342h805l-74 -274h-1183z" />
<glyph unicode="F" horiz-adv-x="1251" d="M-20 0l389 1462h1077l-72 -270h-696l-82 -303h602l-72 -271h-602l-166 -618h-378z" />
<glyph unicode="G" horiz-adv-x="1501" d="M45 421q-3 33 -3 68q0 116 36 252q45 170 135 309.5t213 239t275.5 153.5t324.5 54q113 0 192.5 -11t138 -26.5t102.5 -33t83 -31.5l-86 -324q-47 23 -101.5 49.5t-113.5 49t-122.5 37t-129.5 14.5q-102 0 -189 -43t-158 -112t-120 -157t-73 -180q-23 -85 -23 -166v-13 q2 -87 36 -154.5t99.5 -107.5t167.5 -40q66 0 129.5 13t132.5 36q2 0 12.5 37t21.5 80t21 79l9 35h-264l71 273h615l-187 -699q-49 -18 -117.5 -41.5t-154.5 -43t-186.5 -33t-213.5 -13.5q-172 0 -295.5 53.5t-193.5 154t-84 242.5z" />
<glyph unicode="H" horiz-adv-x="1519" d="M-20 0l389 1462h381l-154 -575h502l153 575h381l-391 -1462h-381l166 618h-502l-166 -618h-378z" />
<glyph unicode="I" horiz-adv-x="636" d="M-20 0l389 1462h381l-392 -1462h-378z" />
<glyph unicode="J" horiz-adv-x="653" d="M-309 -215q119 63 216 163.5t140 254.5l338 1261h381l-346 -1292q-35 -117 -89.5 -211t-122 -169t-148 -134t-166.5 -109z" />
<glyph unicode="K" horiz-adv-x="1499" d="M-20 0l389 1462h381l-156 -581l637 581h473l-700 -596l376 -866h-473l-327 825l-222 -825h-378z" />
<glyph unicode="L" horiz-adv-x="1189" d="M-20 0l389 1462h381l-304 -1134h682l-88 -328h-1060z" />
<glyph unicode="M" horiz-adv-x="1925" d="M-72 0l471 1462h562q-6 -182 -13 -332l-4 -126q-2 -63 -3 -116.5t-2 -92.5t-1 -54q0 -41 -3 -95t-7 -103q-4 -57 -8 -117h4q27 59 53 117q23 49 48.5 103t47.5 95q8 14 28 54l46 92l58 117q32 63 65 126q76 150 166 332h561l-309 -1462h-379l235 1110h-4l-579 -1110h-308 l15 1110h-4l-359 -1110h-377z" />
<glyph unicode="N" horiz-adv-x="1517" d="M-20 0l389 1462h391l266 -901h4l242 901h358l-391 -1462h-391l-264 911h-4l-244 -911h-356z" />
<glyph unicode="O" horiz-adv-x="1511" d="M44 433q-2 29 -2 58q0 113 34 240q43 160 127 298t203.5 241.5t270 163t322.5 59.5t291 -59.5t183.5 -163t75.5 -241.5q2 -29 3 -58q0 -113 -34 -240q-43 -160 -128 -298t-205 -241.5t-270.5 -163t-322.5 -59.5t-291 59.5t-182.5 163t-74.5 241.5zM430 564q-1 -14 -1 -27 q0 -69 18 -127q22 -70 75 -115t146 -45q92 0 168.5 45t136 114.5t100.5 154.5t64 167q20 82 24 167q1 14 1 27q0 69 -18 128q-22 70 -75 114.5t-145 44.5t-169 -45t-135.5 -114.5t-100.5 -154.5t-62 -167q-23 -82 -27 -167z" />
<glyph unicode="P" horiz-adv-x="1386" d="M-20 0l376 1417l47 13q47 12 130 26t199 26.5t251 12.5q145 0 251.5 -34t171 -97.5t85.5 -153.5q8 -36 8 -75q0 -59 -18 -125q-39 -143 -111 -236.5t-164 -149t-198.5 -77t-214.5 -21.5q-23 0 -72 -1t-98 -1h-86q-37 0 -37 2l-142 -526h-378zM573 805h193q70 0 127 8 t100 29.5t73 60.5t46 98q9 37 9 68q0 64 -40 103q-59 58 -194 59q-41 0 -79 -5t-67 -9q-35 -6 -61 -13z" />
<glyph unicode="Q" horiz-adv-x="1521" d="M44 433q-2 29 -2 58q0 113 34 240q43 160 127 298t203.5 241.5t270 163t322.5 59.5t291 -59.5t183.5 -163t75.5 -241.5q2 -29 3 -58q0 -113 -34 -240q-43 -158 -126 -293t-200 -239l131 -170q-33 -35 -68 -62q-29 -23 -64.5 -42t-68.5 -19t-57.5 13t-40.5 30 q-20 18 -35 43l-37 53q-170 -76 -360 -76q-172 0 -291 59.5t-182.5 163t-74.5 241.5zM430 564q-1 -14 -1 -27q0 -69 18 -127q22 -70 75 -115t146 -45q23 0 58.5 5t55.5 15l-108 148l217 178l113 -147q43 57 77.5 132.5t55.5 149.5q20 82 25 167q1 16 1 31q0 67 -18 124 q-23 70 -75 114.5t-144 44.5t-169 -45t-136.5 -114.5t-101.5 -154.5t-62 -167q-23 -82 -27 -167z" />
<glyph unicode="R" horiz-adv-x="1458" d="M-20 0l376 1417l47 13q47 12 131 26t199 26.5t250 12.5q145 0 251.5 -34t171 -97.5t85.5 -153.5q8 -36 8 -75q0 -59 -18 -125q-53 -193 -161 -296.5t-245 -146.5q33 -102 76 -203.5t82 -183.5q45 -96 90 -182h-438q-37 76 -72 162q-29 74 -60.5 168t-50.5 198h-75h-127 l-142 -526h-378zM573 805h182q87 0 159.5 15.5t124 56.5t73.5 124q9 37 9 68q0 64 -40 103q-59 58 -194 59q-41 0 -79 -5t-67 -9q-35 -6 -61 -13z" />
<glyph unicode="S" horiz-adv-x="1271" d="M-82 49l4 14q4 14 11.5 39t15.5 56.5t18 64.5q23 78 47 176q33 -18 86.5 -44.5t116 -51t131 -41t131.5 -16.5q31 0 84 3t106.5 17.5t98.5 45t59 83.5q3 11 3 22q0 39 -40 66q-52 35 -134.5 66t-178.5 67.5t-172 93t-114 141.5q-20 44 -19 100q0 52 16 114 q31 117 112 197.5t183.5 132t215 75t208.5 23.5q168 0 299 -23.5t207 -46.5l-6 -25q-6 -26 -17.5 -64t-23.5 -82t-22.5 -80.5t-17.5 -61.5l-7 -25q-29 25 -81 48.5t-113.5 42t-128 30t-126.5 11.5q-33 0 -79 -1.5t-91 -12.5t-81.5 -36.5t-49.5 -72.5q-4 -13 -3 -26 q0 -27 19 -47q28 -30 79 -55.5t118.5 -49t137 -51t134 -64.5t108.5 -87t61 -120q7 -28 6 -60q0 -48 -15 -104q-33 -121 -104.5 -208t-172.5 -143t-228 -83t-269 -27q-133 0 -230 12.5t-161.5 27t-96.5 27.5t-34 13z" />
<glyph unicode="T" horiz-adv-x="1259" d="M143 1135l88 327h1254l-88 -327h-436l-304 -1135h-381l304 1135h-437z" />
<glyph unicode="U" horiz-adv-x="1460" d="M100 604l230 858h381l-238 -884q-18 -72 -20 -132q0 -6 -1 -11q0 -52 18 -91q19 -43 61 -67.5t112 -24.5q139 0 222 92t120 234l238 884h381l-230 -858q-86 -317 -280.5 -476t-526.5 -159t-441 159q-62 90 -62 231q0 107 36 245z" />
<glyph unicode="V" horiz-adv-x="1236" d="M172 1462h397l-4 -1087h4l578 1087h397l-864 -1462h-438z" />
<glyph unicode="W" horiz-adv-x="1949" d="M44 267q11 75 28 136l282 1059h377l-242 -903q-16 -57 -31 -113q-14 -49 -14 -88v-11q2 -44 32 -70.5t106 -26.5q41 0 68.5 8t45.5 18q23 10 35 27l203 762h366l-202 -762q6 -16 20 -27q12 -10 36 -18t65 -8q76 0 119.5 26.5t69.5 70.5t39 99.5t30 112.5l241 903h375 l-283 -1059q-16 -61 -44.5 -135.5t-90 -141.5t-167 -112t-277.5 -45q-123 0 -214 20.5t-167 43.5h-2q-90 -23 -196.5 -43.5t-233.5 -20.5q-170 0 -252 45t-108 112q-18 46 -17 96q0 22 3 45z" />
<glyph unicode="X" horiz-adv-x="1363" d="M-211 0l723 768l-291 694h449l125 -454l381 454h434l-660 -694l312 -768h-463l-144 487l-430 -487h-436z" />
<glyph unicode="Y" horiz-adv-x="1282" d="M144 729q-31 73 -30 172q0 110 38 252l81 309h381l-90 -336q-18 -72 -20 -131v-11q0 -52 17 -91q19 -43 61.5 -67.5t111.5 -24.5q139 0 222 92t120 233l90 336h381l-82 -309q-72 -270 -221 -424t-391 -197l-143 -532h-381l143 532q-223 43 -288 197z" />
<glyph unicode="Z" horiz-adv-x="1302" d="M-143 0q6 27 15 60.5t18.5 66.5t16.5 62.5t13 52.5q8 33 17.5 51t19.5 31.5t22.5 22.5t26.5 24q14 12 61.5 52t113.5 96l147 124q80 68 160.5 135.5t156.5 132t134.5 114.5t93.5 81l36 31h-704l86 325h1196q-14 -55 -28.5 -108.5t-24.5 -93.5q-16 -63 -37 -91t-56 -57 q-16 -14 -63 -54t-115.5 -98.5t-150.5 -127t-165 -139t-161 -137.5t-138.5 -117t-96.5 -82l-37 -31h794l-86 -326h-1265z" />
<glyph unicode="[" horiz-adv-x="757" d="M-92 -309l467 1755q6 20 22.5 33.5t34.5 13.5h557l-78 -295h-276l-338 -1259h276l-77 -295h-555q-18 0 -28.5 13.5t-4.5 33.5z" />
<glyph unicode="\" horiz-adv-x="833" d="M186 1462l318 31l137 -1493l-313 -31z" />
<glyph unicode="]" horiz-adv-x="757" d="M-231 -356l77 295h275l338 1259h-277l78 295h557q18 0 28.5 -13.5t4.5 -33.5l-469 -1755q-6 -20 -22.5 -33.5t-34.5 -13.5h-555z" />
<glyph unicode="^" horiz-adv-x="1228" d="M-2 680l528 747h373l133 -747h-327l-62 487l-321 -487h-324z" />
<glyph unicode="_" horiz-adv-x="1024" d="M-12 -256l24 102h1024l-26 -102h-1022z" />
<glyph unicode="`" horiz-adv-x="606" d="M154 1483h366l119 -305h-246z" />
<glyph unicode="a" horiz-adv-x="1296" d="M45 506q33 127 90.5 234.5t141 185.5t196.5 123t258 45q135 0 237.5 -16.5t170.5 -39.5q80 -25 137 -57l-262 -981h-348l10 37q-33 -20 -70 -35q-33 -12 -76 -22.5t-92 -10.5q-158 0 -248 50.5t-130 128.5q-39 77 -39 169q0 95 24 189zM373 413q-2 -19 -3 -37 q0 -30 7 -57q10 -43 43 -74.5t98 -45.5q23 -6 45 -6q18 0 36 4q40 8 69 24q35 16 65 43l150 557q-23 12 -45 23q-23 10 -49.5 17t-59.5 7q-80 0 -136 -34.5t-96 -87t-64.5 -115t-39.5 -117.5q-14 -51 -20 -101z" />
<glyph unicode="b" horiz-adv-x="1271" d="M-20 82l366 1378h348l-110 -411q29 12 65 22q31 10 74 17.5t92 7.5q158 0 250 -43t134 -116q41 -71 41 -162q0 -95 -28 -204q-31 -113 -87 -220t-142 -192t-200.5 -137.5t-260.5 -52.5h-28q-119 0 -210 16q-101 17 -169 40q-80 24 -135 57zM371 246q23 -18 49 -31 q23 -10 56 -18q17 -4 35.5 -4t39.5 4q74 12 127 52t90 93t60.5 113.5t37.5 115.5q12 49 19 102q2 16 2 30q0 35 -10 65q-14 43 -54.5 71.5t-120.5 28.5q-31 0 -61.5 -7t-56.5 -17q-31 -10 -58 -23z" />
<glyph unicode="c" horiz-adv-x="1140" d="M26 298q-4 29 -4 60q0 82 25 179q35 129 104.5 232t166 176t217 112t260.5 39q88 0 151.5 -8.5t110.5 -20.5t82 -25.5t67 -23.5l-69 -260q-37 18 -73 37.5t-75 36t-82 27.5t-94 11q-82 0 -150.5 -27.5t-123 -74.5t-91 -108.5t-55.5 -131.5q-15 -57 -15 -108q0 -11 1 -23 q4 -61 32.5 -106t83 -70.5t136.5 -25.5q51 0 100 11t97.5 27.5t94.5 36t93 37.5l-70 -260q-37 -10 -79 -23.5t-95 -25.5t-121.5 -20.5t-156.5 -8.5q-139 0 -238.5 39t-158 112t-71.5 178z" />
<glyph unicode="d" d="M21 323q0 98 30 207q27 104 79 206t134 181.5t199 129t274 49.5q49 0 87 -7.5t65 -17.5q31 -10 55 -22l111 411h348l-369 -1378q-74 -33 -168 -57q-80 -23 -191 -40q-100 -16 -219 -16h-28q-145 0 -233.5 46t-129.5 123q-44 79 -44 185zM374 421q-3 -22 -3 -43 q0 -30 6 -57q10 -46 44 -79t101 -45q17 -4 35.5 -4t37.5 4q38 8 67 18q35 12 65 31l156 575q-23 12 -45 23q-20 10 -47 16t-56 8q-82 0 -139 -33.5t-97 -85t-64.5 -109.5t-37.5 -110q-16 -55 -23 -109z" />
<glyph unicode="e" horiz-adv-x="1222" d="M26 298q-4 29 -4 60q0 82 25 179q37 137 110.5 241.5t170 175t211 106.5t231.5 36q113 0 197 -35t136 -96.5t74 -142.5q15 -55 14 -114q0 -29 -3 -59q-6 -49 -17.5 -100t-33.5 -105h-766q-7 -31 -8 -62q0 -12 2 -25q4 -44 28.5 -79.5t71.5 -59t125 -23.5q51 0 113.5 11 t125 27.5t122 36t106.5 37.5l-123 -274q-2 -4 -43 -14.5t-104.5 -21.5t-141.5 -19.5t-151 -8.5q-139 0 -238.5 39t-158 112t-71.5 178zM428 657h432q7 36 7 69q0 8 -1 15q-2 39 -18.5 68t-50 45t-86.5 16q-109 0 -175.5 -57.5t-107.5 -155.5z" />
<glyph unicode="f" horiz-adv-x="790" d="M-246 -195q109 57 198 149.5t128 231.5l172 652h-168l61 225h168q35 106 88.5 182t134 124t192.5 70.5t263 22.5l-63 -235q-111 0 -176.5 -32t-92.5 -132h211l-61 -225h-209l-178 -678q-33 -106 -82 -192.5t-111.5 -156t-135.5 -124t-152 -97.5z" />
<glyph unicode="g" horiz-adv-x="1273" d="M-57 -295l65 260q31 -14 82 -33.5t111.5 -37t122 -29.5t110.5 -12q43 0 77 4t61.5 18t48 43t34.5 78l50 184h-5q-68 -74 -152.5 -114.5t-170.5 -40.5q-121 0 -198 40.5t-115.5 111.5t-40.5 167q0 6 -1 12q0 91 29 197q47 176 162 309q88 102 214 165t294 65 q135 0 235.5 -16.5t165.5 -39.5q78 -25 131 -57l-266 -995q-29 -113 -86 -182.5t-132 -108.5t-162 -52.5t-175 -13.5q-41 0 -107.5 4t-139 13.5t-139 23.5t-103.5 37zM366 439q0 -42 14 -74q15 -35 49 -55.5t91 -20.5q29 0 68 11t76 28q43 16 90 39l110 407q-27 14 -57 25 q-27 10 -62.5 18t-74.5 8q-59 0 -106.5 -23.5t-83.5 -63.5t-60.5 -91t-38.5 -106q-15 -55 -15 -102z" />
<glyph unicode="h" horiz-adv-x="1302" d="M-20 0l389 1462h348q-29 -111 -53.5 -206t-49.5 -187q66 10 136.5 17.5t142.5 7.5q109 0 177.5 -19.5t108.5 -53.5t55 -76t15 -88t-9 -91t-19 -84l-183 -682h-348l154 571q14 55 27 108q11 42 11 77v16q-3 41 -33 66.5t-101 25.5q-39 0 -75 -7t-65 -17q-35 -10 -63 -25 l-217 -815h-348z" />
<glyph unicode="i" horiz-adv-x="604" d="M-20 0l282 1063h348l-284 -1063h-346zM297 1196l72 266h348l-72 -266h-348z" />
<glyph unicode="j" horiz-adv-x="616" d="M-285 -195q109 57 198 149.5t128 231.5l235 877h349l-242 -903q-33 -106 -82 -192.5t-111.5 -156t-135 -124t-152.5 -97.5zM309 1196l72 266h348l-72 -266h-348z" />
<glyph unicode="k" horiz-adv-x="1218" d="M-20 0l389 1462h348l-213 -794l424 395h403l-508 -442l273 -621h-420l-207 539l-143 -539h-346z" />
<glyph unicode="l" horiz-adv-x="604" d="M-20 0l389 1462h348l-391 -1462h-346z" />
<glyph unicode="m" horiz-adv-x="1904" d="M-20 0l258 981l48 17q48 17 130 39t190.5 39.5t231.5 17.5q90 0 152.5 -17.5t103.5 -40.5q80 20 182 39t219 19q109 0 177.5 -19.5t108.5 -53.5t55 -76t15 -88t-9 -91t-19 -84l-183 -682h-348l154 573q16 63 32 117q18 61 17 100q0 34 -16 54q-18 23 -68 22q-39 0 -77 -7 t-66 -17q-35 -10 -66 -25q-2 -10 -5 -21.5t-11 -39t-21.5 -77.5t-37 -138t-58.5 -219.5t-86 -321.5h-348l153 573q16 61 32 116q3 10 5 18.5l4 17t3.5 16.5t2.5 16t1.5 15t0.5 15q0 36 -17 57q-17 23 -66 22q-39 0 -77 -7t-67 -17q-35 -10 -65 -25l-219 -817h-346z" />
<glyph unicode="n" horiz-adv-x="1300" d="M-20 0l258 981l56 17q56 17 148.5 39t209 39.5t239.5 17.5q109 0 177.5 -19.5t108.5 -53.5t55 -76t15 -88t-9 -91t-19 -84l-183 -682h-348l154 573q14 55 27 108q11 42 11 77v16q-3 41 -33 66.5t-102 25.5q-39 0 -74.5 -7t-64.5 -17q-33 -10 -61 -25l-219 -817h-346z" />
<glyph unicode="o" horiz-adv-x="1220" d="M25 309q-3 26 -3 53q0 80 23 170q31 119 96.5 222.5t157.5 178.5t208 119t247 44t224 -43t145.5 -119t62.5 -179q3 -26 2 -53q0 -80 -23 -170q-33 -121 -98.5 -223t-157.5 -178t-208.5 -119t-247.5 -43t-223.5 44t-143.5 119t-61 177zM362 404q-2 -21 -2 -41q0 -36 8 -66 q11 -47 44.5 -74.5t99.5 -27.5q63 0 113.5 27.5t87.5 74.5t62.5 107.5t43.5 125.5q18 68 26 129q3 23 2 44q0 35 -7 65q-12 47 -47 74.5t-99 27.5q-63 0 -112.5 -27.5t-86 -74.5t-63 -108.5t-45.5 -129.5q-19 -66 -25 -126z" />
<glyph unicode="p" d="M-113 -356l359 1339q72 33 166 57q80 23 191.5 39.5t246.5 16.5q145 0 233 -46t131 -123q22 -40 33.5 -86t11.5 -99q0 -98 -30 -207q-29 -104 -80 -206t-134 -181.5t-200 -129t-274 -49.5q-49 0 -88 6.5t-66 16.5q-31 10 -53 24l-101 -372h-346zM397 244q29 -18 60 -29 q27 -10 59 -16q14 -3 29 -3q19 0 39 5q76 14 127 50t84.5 82t53 98t34.5 104q14 57 21 116q2 20 3 39q0 37 -10 70q-14 49 -56 80.5t-122 31.5q-33 0 -63.5 -8t-53.5 -18q-27 -12 -51 -27z" />
<glyph unicode="q" horiz-adv-x="1302" d="M51 506q31 113 87.5 218t141.5 187t198.5 132.5t258.5 50.5q135 0 237.5 -16.5t170.5 -39.5q80 -25 137 -57l-356 -1337h-348l98 372q-31 -14 -68 -24q-31 -10 -72.5 -16.5t-91.5 -6.5q-158 0 -249 45t-133 120q-41 73 -41 167q0 97 30 205zM378 407q-3 -20 -3 -39 q0 -27 6 -51q10 -41 43 -71.5t100 -44.5q18 -5 37 -5q15 0 31 3q37 6 70 16q37 10 73 29l154 573q-16 14 -39 27q-18 10 -45 18t-60 8q-80 0 -138 -35.5t-100 -90t-68.5 -119t-41.5 -119.5q-12 -51 -19 -99z" />
<glyph unicode="r" horiz-adv-x="866" d="M-20 0l262 989q68 31 157 53q78 20 186.5 37t248.5 17q31 0 66.5 -3t64 -6.5t47 -7.5t16.5 -4l-63 -241q-12 6 -37 12t-54.5 10t-62.5 7t-59 3q-45 0 -84 -9t-67 -19.5t-44 -19.5t-16 -11l-215 -807h-346z" />
<glyph unicode="s" horiz-adv-x="1107" d="M-92 43q6 18 12 41q4 18 10.5 42t14.5 50q16 57 37 133q27 -14 71.5 -33.5t101 -36t120 -29.5t131.5 -15q27 0 61.5 1t68 10t59.5 26.5t36 52.5q3 10 3 19q0 30 -31 48q-40 25 -104.5 44.5t-139 43t-134 63.5t-88.5 105q-14 33 -14 75.5t14 94.5q23 86 88.5 146.5 t149.5 98.5t178 55.5t174 17.5q141 0 247.5 -31t172.5 -49l-10 -39q-10 -39 -24.5 -86t-26.5 -85l-11 -38q-25 18 -67.5 35.5t-95 32t-108.5 23.5t-106 9q-27 0 -59.5 -1t-62 -9t-53 -25.5t-31.5 -48.5q-3 -10 -3 -18q0 -30 31 -48q41 -24 105.5 -43.5t141.5 -41t136.5 -60 t88.5 -101.5q16 -33 16 -76q0 -39 -13 -87q-25 -90 -80 -154.5t-135 -106.5t-182 -61.5t-221 -19.5q-111 0 -198 12.5t-146.5 25.5t-91 25.5t-33.5 12.5z" />
<glyph unicode="t" horiz-adv-x="770" d="M61 838l62 225h174l86 321h348l-88 -321h219l-61 -225h-219l-129 -488q-9 -31 -10 -52q0 -12 3 -22q8 -25 34 -33q23 -8 60 -9h9q43 1 98 2l-63 -236q-45 -4 -104.5 -8t-120 -4t-112.5 6t-83 24q-29 16 -49.5 39t-31.5 55q-10 29 -10 69q0 48 17 112l146 545h-175z" />
<glyph unicode="u" horiz-adv-x="1302" d="M35 252q10 72 26 129l183 682h348l-154 -574q-14 -55 -27 -107q-11 -42 -11 -77v-16q3 -41 33 -66.5t102 -25.5q39 0 74.5 7t64.5 17q33 10 61 25l219 817h349l-261 -981l-56 -17q-56 -17 -148.5 -39t-209 -39.5t-239.5 -17.5q-162 0 -238.5 43t-101.5 106q-17 44 -17 93 q0 20 3 41z" />
<glyph unicode="v" horiz-adv-x="1099" d="M135 1063h363q0 -197 2 -352v-129v-113v-79v-30h12q-2 0 13.5 30t41 79t59 112.5t68.5 129.5q82 156 191 352h362q-176 -299 -317 -533q-59 -100 -116.5 -195t-102.5 -170t-74 -120l-29 -45h-403z" />
<glyph unicode="w" horiz-adv-x="1890" d="M35 252q10 72 26 129l183 682h348l-154 -574q-14 -55 -27 -107q-11 -42 -11 -77v-16q3 -41 33 -66.5t102 -25.5q39 0 65.5 7t42.5 17q20 10 31 25l160 592h348l-160 -592q4 -14 18 -25q12 -10 35 -17t62 -7q72 0 114.5 25.5t68.5 66.5t40 93t29 107l153 574h348 l-182 -682q-16 -57 -43 -129t-85 -134.5t-158.5 -105.5t-262.5 -43q-117 0 -203 18.5t-157 41.5h-2q-86 -20 -186.5 -40t-221.5 -20q-162 0 -238.5 43t-101.5 106q-17 44 -17 93q0 20 3 41z" />
<glyph unicode="x" horiz-adv-x="1079" d="M-164 0l516 557l-202 506h385l81 -254l218 254h368l-465 -500l226 -563h-385l-103 307l-256 -307h-383z" />
<glyph unicode="y" horiz-adv-x="1048" d="M-92 -195q51 20 106.5 51t100.5 68t71 77q25 37 25 77q0 6 -0.5 11.5t-1 12l-1 13t-1.5 16t-2 17.5q-4 44 -14.5 147.5t-29 286t-48.5 481.5h368l15 -692h4l387 692h356l-612 -954q-68 -104 -126.5 -181.5t-118.5 -135.5t-131 -106t-163 -96z" />
<glyph unicode="z" horiz-adv-x="1118" d="M-96 0q25 92 43 160q10 39 20 63.5t20.5 41t21.5 26.5t24 20q16 12 65 52t115 92.5t139.5 110t136 106.5t105.5 84t51 41h-487l71 266h930q-25 -92 -43 -160q-10 -39 -20.5 -63.5t-20.5 -41t-21.5 -26.5t-25.5 -20q-16 -12 -65.5 -52.5t-115 -92.5t-139 -109.5 t-136 -106.5t-106.5 -84t-50 -41h569l-72 -266h-1009z" />
<glyph unicode="{" horiz-adv-x="757" d="M10 506l33 123q18 0 50 4t66 16.5t61.5 37t39.5 67.5l119 446q23 82 59.5 138.5t82.5 91t100.5 49t111.5 14.5h242l-66 -246h-84q-37 0 -62.5 -13t-41.5 -32.5t-24.5 -43t-14.5 -44.5l-90 -336q-16 -59 -51 -97t-77 -59.5t-85 -29.5t-76 -10l-2 -7q33 -2 72 -9 t68.5 -28.5t43 -62.5t-5.5 -115l-90 -337q-6 -20 -9 -44t3 -43.5t24.5 -33t55.5 -13.5h84l-66 -245h-241q-57 0 -102.5 16t-73 53t-34.5 94.5t13 139.5l113 415q12 49 -2.5 77t-40 43.5t-55.5 19.5t-48 4z" />
<glyph unicode="|" horiz-adv-x="454" d="M-193 -438l545 2048h295l-547 -2048h-293z" />
<glyph unicode="}" horiz-adv-x="757" d="M-217 -356l65 245h84q37 0 61.5 13.5t41 33t25 43t14.5 44.5l90 337q20 74 57 115t78 62.5t83 28.5t75 9l2 7q-31 2 -70 10t-68.5 29.5t-45 59.5t0.5 97l91 336q6 20 9 44t-3 43.5t-24.5 32.5t-55.5 13h-84l65 246h242q57 0 103.5 -14.5t75 -49t35.5 -91t-15 -138.5 l-125 -467q-12 -43 3 -67.5t42 -37t56.5 -16.5t47.5 -4l-28 -102q-18 0 -50 -4t-66 -19.5t-62.5 -43t-40.5 -77.5l-113 -415q-23 -82 -59.5 -139.5t-84 -94.5t-101.5 -53t-111 -16h-240z" />
<glyph unicode="~" horiz-adv-x="1228" d="M152 559q25 33 56.5 64.5t69 56.5t81.5 40t96 15q53 0 105 -19.5t104 -45.5q51 -25 100 -49.5t90 -24.5q61 0 115.5 47t103.5 100l2 -266q-31 -33 -64.5 -64.5t-70.5 -56t-79 -40t-89 -15.5q-57 0 -102 19.5t-88 48.5q-41 29 -93.5 50t-123.5 21q-35 0 -65 -13 t-55.5 -33.5t-49 -47.5t-41.5 -53z" />
<glyph unicode="&#xa1;" horiz-adv-x="606" d="M-80 -342q111 328 183.5 564.5t119.5 414.5h293q-47 -178 -101.5 -414.5t-117.5 -564.5h-377zM217 786l78 287q4 20 21.5 33.5t35.5 13.5h291q18 0 27.5 -13t5.5 -34l-78 -287q-4 -20 -21.5 -33.5t-35.5 -13.5h-291q-18 0 -27.5 13.5t-5.5 33.5z" />
<glyph unicode="&#xa2;" d="M104 537q31 115 89.5 209t138.5 164.5t180 115.5t217 61l45 166h168l-43 -157q76 -2 131 -11.5t97 -20.5t74 -24.5t63 -21.5l-70 -260q-37 18 -74 37.5t-74.5 36t-81.5 27.5t-96 11q-82 0 -150.5 -27.5t-121.5 -74.5t-90 -108.5t-55 -131.5t-14.5 -131t32.5 -106 t83 -70.5t136 -25.5q51 0 100.5 11t97.5 27.5t94 36t93 37.5l-69 -260q-35 -10 -74 -22.5t-87 -23.5t-108.5 -20.5t-136.5 -11.5l-51 -184h-168l53 192q-217 31 -304 176.5t-24 383.5z" />
<glyph unicode="&#xa3;" d="M-41 176q4 6 47 31.5t98.5 72t107.5 112t75 151.5q8 37 12 71h-248l58 215h149l-33 70q-16 35 -27.5 73t-12.5 82t14 99q25 94 96.5 159.5t163.5 106.5t193.5 60.5t189.5 19.5q63 0 143 -10t149.5 -25.5t115.5 -33t44 -31.5q-6 -23 -18 -65t-24.5 -85t-21.5 -74l-9 -32 q-27 18 -75 37.5t-104.5 35t-118 25.5t-114.5 10q-29 0 -64.5 -1t-67.5 -10t-57.5 -27.5t-33.5 -51.5q-10 -37 -9 -77t8 -81.5t18 -85t22 -88.5h239l-57 -215h-174q0 -8 -2 -15t-4 -15q-23 -86 -60 -142.5t-71 -93.5q-41 -43 -88 -69l2 -5q39 23 82 30t83 7q53 0 113 -19.5 t119 -19.5q66 0 110 22.5t97 70.5l73 -252q-111 -90 -206 -118t-189 -28q-51 0 -101 12.5t-100.5 28t-103.5 27.5t-108 12q-59 0 -121 -24.5t-119 -55.5z" />
<glyph unicode="&#xa4;" d="M6 471l113 174h90l10 33q2 10 3 21.5t5 21.5q6 20 12.5 36.5t10.5 30.5h-160l115 175h117q109 213 284 340q201 143 451 143q174 0 348 -103l-178 -274q-131 100 -262 100q-193 0 -326 -206h514l-115 -175h-479q-6 -20 -12 -37.5t-10 -33.5q-2 -6 -6.5 -24.5t-10.5 -47.5 h428l-119 -174h-321q-4 -219 219 -219q152 0 346 125l-84 -316q-166 -78 -348 -77q-254 0 -373 155q-100 135 -82 332h-180z" />
<glyph unicode="&#xa5;" d="M8 268l58 215h360l27 99h-361l58 215h145q-100 76 -119.5 209t33.5 331l33 125h381l-41 -151q-18 -72 -20.5 -131.5t17 -102.5t61.5 -67.5t112 -24.5q139 0 222 92t120 234l41 151h381l-33 -125q-53 -199 -145.5 -332t-233.5 -208h147l-57 -215h-360l-27 -99h360 l-57 -215h-360l-72 -268h-381l72 268h-361z" />
<glyph unicode="&#xa6;" horiz-adv-x="454" d="M-125 -182l135 512h295l-137 -512h-293zM147 842l138 512h295l-138 -512h-295z" />
<glyph unicode="&#xa7;" d="M14.5 -146.5q-16.5 78.5 12.5 191.5h301q-10 -39 -4 -68.5t22 -52.5q37 -41 113 -41q61 0 111.5 34t66.5 93q14 51 -29 90t-112.5 75t-151.5 74t-147.5 88t-100.5 118.5t-10 165.5q33 117 110.5 194.5t188.5 116.5q-29 47 -34 94t11 111q25 90 84.5 156.5t136 111.5 t161.5 66.5t163 21.5q94 0 170 -24.5t123 -75t63.5 -125t-8.5 -174.5h-301q18 68 -14 106q-31 37 -98 37q-47 0 -93.5 -26.5t-60.5 -80.5q-8 -29 1 -50t27.5 -37.5t41 -30t43.5 -23.5l295 -166q35 -25 63.5 -51.5t46 -59t20.5 -73.5t-12 -94q-14 -53 -40.5 -101.5 t-64.5 -89.5t-85 -71.5t-102 -44.5q39 -41 50 -99.5t-7 -126.5q-27 -98 -86.5 -170.5t-137 -121t-168 -71t-178.5 -22.5q-100 0 -181 23.5t-132 74t-67.5 129zM395 674q-14 -41 5.5 -64.5t50.5 -46.5l333 -184q23 6 53.5 23.5t45.5 39.5q31 41 19.5 84t-71.5 82l-270 144 q-29 16 -54.5 16t-48 -12.5t-39 -33.5t-24.5 -48z" />
<glyph unicode="&#xa8;" horiz-adv-x="606" d="M145 1206l68 256h305l-67 -256h-306zM580 1206l67 256h307l-67 -256h-307z" />
<glyph unicode="&#xa9;" horiz-adv-x="1638" d="M8.5 407.5q-28.5 141.5 20.5 323.5q49 180 152.5 322.5t238.5 240t291.5 148.5t310.5 51t283 -51t213 -148.5t112.5 -240t-20.5 -322.5q-49 -182 -153.5 -323.5t-241 -238.5t-292 -148.5t-309.5 -51.5t-282.5 51.5t-211.5 148.5t-111.5 238.5zM236.5 501.5 q19.5 -104.5 78 -179t149.5 -116.5t202 -42q109 0 222 42t212.5 116.5t175.5 179t110 229.5q33 125 12.5 229.5t-78.5 179t-149.5 116.5t-199.5 42q-111 0 -224.5 -42t-213 -116.5t-174 -179t-107.5 -229.5q-35 -125 -15.5 -229.5zM424 741q27 100 78 181.5t120.5 138.5 t155.5 87t183 30q63 0 106 -10.5t75 -24t54.5 -26.5t44.5 -21l-94 -201q-25 14 -49.5 32.5t-50 35t-56 29t-67.5 12.5q-41 0 -82 -21.5t-76 -58.5t-61.5 -85t-40.5 -102q-14 -55 -13.5 -103t16 -84t45 -56.5t70.5 -20.5q37 0 74 11.5t72 28.5t68.5 35.5t66.5 33.5l-12 -201 q-27 -8 -57.5 -21.5t-68.5 -27t-87.5 -23.5t-112.5 -10q-195 0 -275.5 116.5t-25.5 325.5z" />
<glyph unicode="&#xaa;" horiz-adv-x="772" d="M-45 915q25 92 77 136.5t120 66.5q70 23 146.5 29t154.5 20q31 6 49 18.5t26 41.5t-25.5 42t-68.5 13q-96 0 -131 -70h-242q23 78 64 122t94 69q53 23 116.5 33t145.5 10q76 0 139.5 -8t105.5 -33t58.5 -71t-4.5 -120l-78 -284q-10 -41 -18 -86t-4 -103h-264 q-4 16 -3 29.5t3 30.5q-35 -20 -68 -34.5t-61 -25.5q-59 -18 -119 -18q-123 0 -181.5 47t-31.5 145zM219 948q-10 -31 15.5 -46t64.5 -15q137 0 174 139l10 39q-41 -14 -74.5 -20.5t-74.5 -14.5t-73 -25.5t-42 -56.5z" />
<glyph unicode="&#xab;" horiz-adv-x="909" d="M49 397l84 312l395 262l-75 -281l-213 -137l141 -135l-76 -281zM449 397l83 312l396 262l-76 -281l-213 -137l141 -135l-75 -281z" />
<glyph unicode="&#xac;" horiz-adv-x="1228" d="M109 625l79 295h1033l-183 -674h-295l103 379h-737z" />
<glyph unicode="&#xad;" horiz-adv-x="833" d="M57 410l80 295h637l-80 -295h-637z" />
<glyph unicode="&#xae;" horiz-adv-x="1638" d="M8.5 407.5q-28.5 141.5 20.5 323.5q49 180 152.5 322.5t238.5 240t291.5 148.5t310.5 51t283 -51t213 -148.5t112.5 -240t-20.5 -322.5q-49 -182 -153.5 -323.5t-241 -238.5t-292 -148.5t-309.5 -51.5t-282.5 51.5t-211.5 148.5t-111.5 238.5zM236.5 501.5 q19.5 -104.5 78 -179t149.5 -116.5t202 -42q109 0 222 42t212.5 116.5t175.5 179t110 229.5q33 125 12.5 229.5t-78.5 179t-149.5 116.5t-199.5 42q-111 0 -224.5 -42t-213 -116.5t-174 -179t-107.5 -229.5q-35 -125 -15.5 -229.5zM385 848h4h6h-6h-4zM395 319l215 809 q43 12 97 21q45 8 106 15t135 7q158 0 227.5 -75.5t34.5 -204.5q-29 -109 -106.5 -164t-188.5 -51q16 -59 39 -121.5t41 -116.5q23 -61 45 -121h-204q-18 55 -37 115q-16 51 -30.5 111.5t-25.5 120.5h-51l-92 -345h-205zM731 811q51 0 97 -1t85 6t67 28.5t40 68.5 q16 53 -18.5 80t-106.5 27q-23 0 -43.5 -2t-36.5 -6q-18 -4 -33 -8z" />
<glyph unicode="&#xaf;" horiz-adv-x="606" d="M195 1237l47 176h663l-47 -176h-663z" />
<glyph unicode="&#xb0;" horiz-adv-x="819" d="M73.5 991.5q-10.5 59.5 8.5 126.5q18 68 59 127.5t97.5 104.5t123 70.5t134.5 25.5t121 -25.5t85.5 -70.5t43 -104.5t-8.5 -127.5q-18 -68 -60 -127t-98.5 -104t-123 -70.5t-133.5 -25.5q-68 0 -121.5 25.5t-85 70.5t-42 104.5zM246 1118q-23 -76 8 -129t106 -53 q76 0 133.5 53t79.5 129q20 76 -10.5 129t-105.5 53q-76 0 -133.5 -53t-77.5 -129z" />
<glyph unicode="&#xb1;" horiz-adv-x="1228" d="M-47 -25l78 295h1032l-80 -295h-1030zM109 559l77 295h369l57 207h295l-57 -207h369l-78 -295h-369l-55 -207h-295l55 207h-368z" />
<glyph unicode="&#xb2;" horiz-adv-x="774" d="M-104 569q25 92 82 169t141 130q74 47 146.5 83t135.5 67q59 33 102.5 64.5t51.5 62.5q14 49 -10.5 77.5t-75.5 28.5q-78 0 -121 -51t-63 -121h-256q23 84 64.5 151.5t105.5 115.5q59 47 139 73.5t182 26.5q78 0 141.5 -17.5t104.5 -52.5t55.5 -88t-4.5 -125 q-14 -55 -46 -97t-75 -76t-96 -60.5t-113 -52.5q-72 -33 -116.5 -55.5t-73.5 -57.5h397l-53 -195h-745z" />
<glyph unicode="&#xb3;" horiz-adv-x="774" d="M-31 842l13 47h254q-18 -72 10 -107q31 -37 100 -37q25 0 50.5 5.5t48 16.5t39 26.5t22.5 35.5q16 61 -24 83t-99 22q-14 0 -28.5 -1t-30.5 -1l45 168q16 0 29.5 -1t27.5 -1q18 0 43 3t48.5 12t40.5 23.5t24 37.5q10 35 -21 56t-74 21q-57 0 -101 -30.5t-56 -83.5h-256 q47 158 170 233.5t293 75.5q72 0 135 -13.5t108 -43t63.5 -77.5t0.5 -120q-16 -59 -63.5 -106.5t-123.5 -57.5v-4q78 -10 102.5 -60.5t2.5 -134.5q-20 -74 -67.5 -127t-110 -86.5t-137 -49t-150.5 -15.5q-86 0 -153.5 16.5t-111.5 52t-61.5 90t-1.5 132.5z" />
<glyph unicode="&#xb4;" horiz-adv-x="606" d="M379 1178l278 305h369l-401 -305h-246z" />
<glyph unicode="&#xb5;" horiz-adv-x="1335" d="M-102 -356l376 1419h351l-154 -574q-14 -55 -27.5 -107t-10.5 -93t33 -66.5t101 -25.5q39 0 75 7t65 17q33 10 61 25l219 817h348l-260 -981l-56 -17q-56 -17 -148.5 -39t-209 -39.5t-239.5 -17.5q-25 0 -46.5 1t-43.5 3l-88 -329h-346z" />
<glyph unicode="&#xb6;" horiz-adv-x="1269" d="M109 1098q31 111 88 181.5t136 111.5t175 56t203 15h643l-486 -1808h-245l436 1624h-199l-436 -1624h-246l293 1094q-223 0 -315 92t-47 258z" />
<glyph unicode="&#xb7;" horiz-adv-x="645" d="M128 512q-5 35 5 74t33.5 73.5t56.5 60t72 41t78 15.5t69.5 -15.5t50 -41t25.5 -60t-4 -73.5t-34.5 -74t-57.5 -60.5t-72 -41t-78 -15.5t-69.5 15.5t-50 41t-24.5 60.5z" />
<glyph unicode="&#xb8;" horiz-adv-x="606" d="M10 -416l66 92q37 -14 75.5 -24t79.5 -14q43 -4 79 14t46 57q20 78 -67 78q-23 0 -43.5 -4t-42.5 -10l-35 39l168 188h113l-115 -123l2 -4q23 6 42 8t44 2q29 0 57.5 -8t48 -27.5t27.5 -51.5t-4 -77q-14 -55 -45 -93t-73 -61.5t-93 -33.5t-104 -10q-68 0 -126.5 21.5 t-99.5 41.5z" />
<glyph unicode="&#xb9;" horiz-adv-x="774" d="M129 1071l49 184q49 0 99.5 8.5t94.5 28t77.5 53t50.5 82.5h205l-232 -858h-256l135 502h-223z" />
<glyph unicode="&#xba;" horiz-adv-x="792" d="M-4 1083q20 82 65 148.5t110 114t145.5 74t175.5 26.5q190 0 269 -99.5t34 -263.5q-23 -80 -67 -146.5t-108.5 -114.5t-146.5 -73.5t-176 -25.5q-188 0 -266 99t-35 261zM243 1028q-1 -29 9 -53.5t33.5 -40.5t64.5 -16q43 0 75 16t54.5 40.5t37.5 53.5t22 55q8 27 9 56.5 t-9.5 54.5t-34 41t-66.5 16q-41 0 -72.5 -16t-55 -41t-38 -54.5t-22.5 -56.5q-6 -26 -7 -55z" />
<glyph unicode="&#xbb;" horiz-adv-x="909" d="M-18 137l73 281l213 137l-141 135l76 281l256 -260l-84 -312zM379 137l76 281l213 137l-142 135l76 281l256 -260l-84 -312z" />
<glyph unicode="&#xbc;" horiz-adv-x="1935" d="M147 1071l50 184q49 0 99 8.5t94 28t78 53t50 82.5h205l-229 -858h-256l133 502h-224zM201 -55l1253 1538h203l-1254 -1538h-202zM942 182l53 203l543 473h250l-131 -491h131l-49 -185h-131l-49 -182h-259l50 182h-408zM1184 367h217l67 251z" />
<glyph unicode="&#xbd;" horiz-adv-x="1935" d="M125 1071l49 184q49 0 99.5 8.5t94.5 28t77.5 53t50.5 82.5h204l-229 -858h-256l133 502h-223zM150 -55l1253 1538h203l-1254 -1538h-202zM948 0q25 92 83.5 169t142.5 130q74 47 146.5 83t135.5 67q59 33 102.5 64.5t51.5 61.5q14 49 -10.5 78t-75.5 29q-78 0 -121 -51 t-64 -121h-256q23 84 65 151.5t105 114.5q59 47 139.5 74t182.5 27q78 0 141.5 -17.5t104.5 -52.5t55 -88t-4 -125q-14 -55 -46 -97t-75 -76t-96 -60.5t-113 -53.5q-72 -33 -117 -55.5t-73 -56.5h397l-53 -195h-748z" />
<glyph unicode="&#xbe;" horiz-adv-x="1935" d="M63 842l13 47h256q-16 -72 10 -107q31 -37 102 -37q25 0 50.5 5.5t48 16.5t39 26.5t22.5 35.5q8 29 0 48.5t-25.5 31t-44 16.5t-55.5 5q-14 0 -28.5 -1t-30.5 -1l43 168q16 0 30.5 -1t28.5 -1q18 0 43 3t48.5 12t42 24.5t24.5 40.5q10 35 -21.5 56t-74.5 21 q-57 0 -101.5 -30.5t-56.5 -83.5h-256q47 158 170 233.5t293 75.5q72 0 135 -13.5t108.5 -43t63.5 -77.5t0 -120q-16 -59 -62.5 -106.5t-121.5 -57.5l-2 -4q78 -10 103.5 -60.5t2.5 -134.5q-20 -74 -67.5 -127t-111 -86.5t-138 -49t-150.5 -15.5q-86 0 -153.5 16.5 t-112.5 52t-62.5 90t-1.5 132.5zM311 -55l1254 1538h202l-1253 -1538h-203zM965 182l53 203l543 473h249l-131 -491h131l-49 -185h-131l-49 -182h-258l49 182h-407zM1206 367h217l68 251z" />
<glyph unicode="&#xbf;" horiz-adv-x="1175" d="M-80 -33q-25 -94 10 -159.5t103.5 -107.5t160 -60.5t179.5 -18.5q63 0 149 10.5t164 25.5t134.5 32.5t60.5 31.5q6 20 16 64l21 86q10 43 18 75l8 31q-37 -18 -95 -37.5t-122.5 -35t-131.5 -25.5t-120 -10q-29 0 -63.5 1t-62 10t-44 26.5t-6.5 52.5q10 41 49 77 t91.5 71.5t113.5 75.5t118.5 90.5t103.5 115t69 148.5q12 43 12 100h-328q4 -12 3 -27.5t-5 -31.5q-20 -72 -67 -127.5t-108.5 -101.5t-130 -87t-129 -85t-108 -94t-63.5 -116zM532 786l76 287q6 20 23.5 33.5t36.5 13.5h290q18 0 27.5 -13t3.5 -34l-76 -287 q-6 -20 -22.5 -33.5t-34.5 -13.5h-291q-18 0 -28.5 13.5t-4.5 33.5z" />
<glyph unicode="&#xc0;" horiz-adv-x="1441" d="M-211 0l936 1462h387l156 -1462h-397l-19 272h-510l-164 -272h-389zM504 545h332l-25 512h-4zM572 1858h366l119 -305h-246z" />
<glyph unicode="&#xc1;" horiz-adv-x="1441" d="M-211 0l936 1462h387l156 -1462h-397l-19 272h-510l-164 -272h-389zM504 545h332l-25 512h-4zM797 1553l278 305h369l-401 -305h-246z" />
<glyph unicode="&#xc2;" horiz-adv-x="1441" d="M-211 0l936 1462h387l156 -1462h-397l-19 272h-510l-164 -272h-389zM504 545h332l-25 512h-4zM543 1553l307 305h311l150 -305h-262l-80 163l-166 -163h-260z" />
<glyph unicode="&#xc3;" horiz-adv-x="1441" d="M-211 0l936 1462h387l156 -1462h-397l-19 272h-510l-164 -272h-389zM504 545h332l-25 512h-4zM543 1559q20 49 52 99t74 90t91 64.5t104 24.5q41 0 79 -12t73 -29q35 -16 66.5 -29.5t56.5 -13.5q35 0 64.5 27t43.5 57h146q-20 -53 -50 -100t-69 -82t-88 -56.5t-106 -21.5 q-47 0 -85 11.5t-71 25.5q-35 14 -64.5 25.5t-58.5 11.5q-35 0 -66.5 -28.5t-48.5 -63.5h-143z" />
<glyph unicode="&#xc4;" horiz-adv-x="1441" d="M-211 0l936 1462h387l156 -1462h-397l-19 272h-510l-164 -272h-389zM504 545h332l-25 512h-4zM563 1581l68 256h305l-67 -256h-306zM998 1581l67 256h307l-67 -256h-307z" />
<glyph unicode="&#xc5;" horiz-adv-x="1441" d="M-211 0l936 1462h387l156 -1462h-397l-19 272h-510l-164 -272h-389zM504 545h332l-25 512h-4zM741.5 1645q-6.5 40 6.5 83q12 45 39.5 85t65.5 69.5t82 47t89 17.5t80 -17.5t57.5 -46t29.5 -69.5t-5 -86t-40 -85t-65.5 -69.5t-82.5 -47t-91 -17.5q-45 0 -80.5 17.5 t-57 48t-28 70.5zM860 1728q-12 -43 10.5 -74.5t67.5 -31.5t84 31.5t51 74.5q12 47 -11 77t-69 30q-45 0 -83 -30t-50 -77z" />
<glyph unicode="&#xc6;" horiz-adv-x="2052" d="M-205 0l1073 1462h1327l-81 -305h-672l-68 -256h627l-80 -295h-627l-73 -278h690l-88 -328h-1059l70 262h-447l-188 -262h-404zM578 545h331l164 612h-65z" />
<glyph unicode="&#xc7;" horiz-adv-x="1554" d="M90 421q-14 142 33 320q45 170 134 309.5t213 239t276.5 153.5t324.5 54q113 0 192.5 -11t138 -26.5t101.5 -33t82 -31.5l-86 -324q-47 23 -101.5 49.5t-113.5 48t-122.5 36t-129.5 14.5q-102 0 -188 -42t-154.5 -112t-117 -157t-72.5 -179q-25 -92 -24 -179t34 -154.5 t96.5 -107.5t165.5 -40q66 0 137.5 14t143 37t139.5 49.5t127 50.5l-86 -325q-47 -12 -100.5 -30.5t-121 -34t-152.5 -27t-197 -11.5q-172 0 -295 53.5t-193 154t-84 242.5zM285 -416q39 -20 97 -41.5t126 -21.5q53 0 104.5 10t93.5 33.5t72.5 61.5t44.5 93q12 45 4 77 t-27.5 51.5t-48 27.5t-57.5 8q-25 0 -44 -2t-42 -8l-2 4l88 94l-110 2l-144 -161l35 -39q23 6 43.5 10t42.5 4q88 0 68 -78q-10 -39 -46 -57.5t-79 -13.5q-41 4 -80 14t-76 24z" />
<glyph unicode="&#xc8;" horiz-adv-x="1402" d="M-61 0l389 1462h1165l-72 -270h-784l-82 -305h717l-74 -271h-717l-90 -342h805l-74 -274h-1183zM553 1858h366l119 -305h-246z" />
<glyph unicode="&#xc9;" horiz-adv-x="1402" d="M-61 0l389 1462h1165l-72 -270h-784l-82 -305h717l-74 -271h-717l-90 -342h805l-74 -274h-1183zM778 1553l278 305h369l-401 -305h-246z" />
<glyph unicode="&#xca;" horiz-adv-x="1402" d="M-61 0l389 1462h1165l-72 -270h-784l-82 -305h717l-74 -271h-717l-90 -342h805l-74 -274h-1183zM524 1553l307 305h311l150 -305h-262l-80 163l-166 -163h-260z" />
<glyph unicode="&#xcb;" horiz-adv-x="1402" d="M-61 0l389 1462h1165l-72 -270h-784l-82 -305h717l-74 -271h-717l-90 -342h805l-74 -274h-1183zM544 1581l68 256h305l-67 -256h-306zM979 1581l67 256h307l-67 -256h-307z" />
<glyph unicode="&#xcc;" horiz-adv-x="645" d="M-61 0l389 1462h381l-392 -1462h-378zM174 1858h366l119 -305h-246z" />
<glyph unicode="&#xcd;" horiz-adv-x="645" d="M-61 0l389 1462h381l-392 -1462h-378zM399 1553l278 305h369l-401 -305h-246z" />
<glyph unicode="&#xce;" horiz-adv-x="645" d="M-61 0l389 1462h381l-392 -1462h-378zM145 1553l307 305h311l150 -305h-262l-80 163l-166 -163h-260z" />
<glyph unicode="&#xcf;" horiz-adv-x="645" d="M-61 0l389 1462h381l-392 -1462h-378zM165 1581l68 256h305l-67 -256h-306zM600 1581l67 256h307l-67 -256h-307z" />
<glyph unicode="&#xd0;" horiz-adv-x="1554" d="M-57 29l153 577h-147l76 295h149l137 510q0 -2 41 11.5t117 29.5t185.5 29.5t244.5 13.5q186 0 316.5 -55.5t204 -154.5t88 -238.5t-30.5 -309.5q-49 -182 -130 -323.5t-201 -239.5t-279.5 -149.5t-362.5 -53.5q-98 0 -198.5 8.5t-180.5 18.5t-131 20zM383 260l16 -4 q16 -4 42 -8t60 -6t66 -2q115 0 199 31.5t146.5 94t106.5 154.5t77 213q10 41 19 93.5t8 107.5t-14 108.5t-45 95.5t-88 67.5t-140 25.5q-37 0 -72 -3t-64 -7l-61 -11l-86 -309h324l-78 -295h-324z" />
<glyph unicode="&#xd1;" horiz-adv-x="1517" d="M-65 0l389 1462h391l266 -901h4l242 901h358l-391 -1462h-391l-264 911h-4l-244 -911h-356zM582 1559q20 49 52 99t74 90t91 64.5t104 24.5q41 0 79 -12t73 -29q35 -16 66.5 -29.5t56.5 -13.5q35 0 64.5 27t43.5 57h146q-20 -53 -50 -100t-69 -82t-88 -56.5t-106 -21.5 q-47 0 -85 11.5t-71 25.5q-35 14 -64.5 25.5t-58.5 11.5q-35 0 -66.5 -28.5t-48.5 -63.5h-143z" />
<glyph unicode="&#xd2;" horiz-adv-x="1593" d="M44 433q-2 29 -2 58q0 113 34 240q43 160 127 298t203.5 241.5t270 163t322.5 59.5t291 -59.5t183.5 -163t75.5 -241.5q2 -29 3 -58q0 -113 -34 -240q-43 -160 -128 -298t-205 -241.5t-270.5 -163t-322.5 -59.5t-291 59.5t-182.5 163t-74.5 241.5zM430 564q-1 -14 -1 -27 q0 -69 18 -127q22 -70 75 -115t146 -45q92 0 168.5 45t136 114.5t100.5 154.5t64 167q20 82 24 167q1 14 1 27q0 69 -18 128q-22 70 -75 114.5t-145 44.5t-169 -45t-135.5 -114.5t-100.5 -154.5t-62 -167q-23 -82 -27 -167zM648 1858h366l119 -305h-246z" />
<glyph unicode="&#xd3;" horiz-adv-x="1593" d="M44 433q-2 29 -2 58q0 113 34 240q43 160 127 298t203.5 241.5t270 163t322.5 59.5t291 -59.5t183.5 -163t75.5 -241.5q2 -29 3 -58q0 -113 -34 -240q-43 -160 -128 -298t-205 -241.5t-270.5 -163t-322.5 -59.5t-291 59.5t-182.5 163t-74.5 241.5zM430 564q-1 -14 -1 -27 q0 -69 18 -127q22 -70 75 -115t146 -45q92 0 168.5 45t136 114.5t100.5 154.5t64 167q20 82 24 167q1 14 1 27q0 69 -18 128q-22 70 -75 114.5t-145 44.5t-169 -45t-135.5 -114.5t-100.5 -154.5t-62 -167q-23 -82 -27 -167zM873 1553l278 305h369l-401 -305h-246z" />
<glyph unicode="&#xd4;" horiz-adv-x="1593" d="M44 433q-2 29 -2 58q0 113 34 240q43 160 127 298t203.5 241.5t270 163t322.5 59.5t291 -59.5t183.5 -163t75.5 -241.5q2 -29 3 -58q0 -113 -34 -240q-43 -160 -128 -298t-205 -241.5t-270.5 -163t-322.5 -59.5t-291 59.5t-182.5 163t-74.5 241.5zM430 564q-1 -14 -1 -27 q0 -69 18 -127q22 -70 75 -115t146 -45q92 0 168.5 45t136 114.5t100.5 154.5t64 167q20 82 24 167q1 14 1 27q0 69 -18 128q-22 70 -75 114.5t-145 44.5t-169 -45t-135.5 -114.5t-100.5 -154.5t-62 -167q-23 -82 -27 -167zM619 1553l307 305h311l150 -305h-262l-80 163 l-166 -163h-260z" />
<glyph unicode="&#xd5;" horiz-adv-x="1593" d="M44 433q-2 29 -2 58q0 113 34 240q43 160 127 298t203.5 241.5t270 163t322.5 59.5t291 -59.5t183.5 -163t75.5 -241.5q2 -29 3 -58q0 -113 -34 -240q-43 -160 -128 -298t-205 -241.5t-270.5 -163t-322.5 -59.5t-291 59.5t-182.5 163t-74.5 241.5zM430 564q-1 -14 -1 -27 q0 -69 18 -127q22 -70 75 -115t146 -45q92 0 168.5 45t136 114.5t100.5 154.5t64 167q20 82 24 167q1 14 1 27q0 69 -18 128q-22 70 -75 114.5t-145 44.5t-169 -45t-135.5 -114.5t-100.5 -154.5t-62 -167q-23 -82 -27 -167zM619 1559q20 49 52 99t74 90t91 64.5t104 24.5 q41 0 79 -12t73 -29q35 -16 66.5 -29.5t56.5 -13.5q35 0 64.5 27t43.5 57h146q-20 -53 -50 -100t-69 -82t-88 -56.5t-106 -21.5q-47 0 -85 11.5t-71 25.5q-35 14 -64.5 25.5t-58.5 11.5q-35 0 -66.5 -28.5t-48.5 -63.5h-143z" />
<glyph unicode="&#xd6;" horiz-adv-x="1593" d="M44 433q-2 29 -2 58q0 113 34 240q43 160 127 298t203.5 241.5t270 163t322.5 59.5t291 -59.5t183.5 -163t75.5 -241.5q2 -29 3 -58q0 -113 -34 -240q-43 -160 -128 -298t-205 -241.5t-270.5 -163t-322.5 -59.5t-291 59.5t-182.5 163t-74.5 241.5zM430 564q-1 -14 -1 -27 q0 -69 18 -127q22 -70 75 -115t146 -45q92 0 168.5 45t136 114.5t100.5 154.5t64 167q20 82 24 167q1 14 1 27q0 69 -18 128q-22 70 -75 114.5t-145 44.5t-169 -45t-135.5 -114.5t-100.5 -154.5t-62 -167q-23 -82 -27 -167zM639 1581l68 256h305l-67 -256h-306zM1074 1581 l67 256h307l-67 -256h-307z" />
<glyph unicode="&#xd7;" horiz-adv-x="1228" d="M31 223l375 295l-218 295l265 209l217 -295l372 295l154 -209l-373 -295l215 -295l-264 -209l-217 295l-373 -295z" />
<glyph unicode="&#xd8;" horiz-adv-x="1593" d="M-143 20l243 207q-53 100 -58 228.5t34 275.5q43 160 128 298t204.5 241.5t270 163t322.5 59.5q139 0 243 -39t173 -108l217 184l92 -103l-231 -194q51 -100 57.5 -228t-34.5 -274q-43 -160 -127 -298t-204 -241.5t-270.5 -163t-322.5 -59.5q-141 0 -243.5 39t-172.5 109 l-231 -199zM430 510l698 590q-29 51 -78 81.5t-124 30.5q-92 0 -169 -45t-136.5 -114.5t-100.5 -154.5t-63 -167q-14 -55 -21.5 -111.5t-5.5 -109.5zM467 360q29 -51 76 -80.5t125 -29.5q92 0 168.5 45t136 114.5t100.5 154.5t64 167q16 53 23 109.5t3 109.5z" />
<glyph unicode="&#xd9;" horiz-adv-x="1517" d="M92 604l230 858h381l-238 -884q-18 -72 -20 -132q0 -6 -1 -11q0 -52 18 -91q19 -43 61 -67.5t112 -24.5q139 0 222 92t120 234l238 884h381l-230 -858q-86 -317 -280.5 -476t-526.5 -159t-441 159q-62 90 -62 231q0 107 36 245zM611 1858h366l119 -305h-246z" />
<glyph unicode="&#xda;" horiz-adv-x="1517" d="M92 604l230 858h381l-238 -884q-18 -72 -20 -132q0 -6 -1 -11q0 -52 18 -91q19 -43 61 -67.5t112 -24.5q139 0 222 92t120 234l238 884h381l-230 -858q-86 -317 -280.5 -476t-526.5 -159t-441 159q-62 90 -62 231q0 107 36 245zM836 1553l278 305h369l-401 -305h-246z " />
<glyph unicode="&#xdb;" horiz-adv-x="1517" d="M92 604l230 858h381l-238 -884q-18 -72 -20 -132q0 -6 -1 -11q0 -52 18 -91q19 -43 61 -67.5t112 -24.5q139 0 222 92t120 234l238 884h381l-230 -858q-86 -317 -280.5 -476t-526.5 -159t-441 159q-62 90 -62 231q0 107 36 245zM582 1553l307 305h311l150 -305h-262 l-80 163l-166 -163h-260z" />
<glyph unicode="&#xdc;" horiz-adv-x="1517" d="M92 604l230 858h381l-238 -884q-18 -72 -20 -132q0 -6 -1 -11q0 -52 18 -91q19 -43 61 -67.5t112 -24.5q139 0 222 92t120 234l238 884h381l-230 -858q-86 -317 -280.5 -476t-526.5 -159t-441 159q-62 90 -62 231q0 107 36 245zM602 1581l68 256h305l-67 -256h-306z M1037 1581l67 256h307l-67 -256h-307z" />
<glyph unicode="&#xdd;" horiz-adv-x="1366" d="M152 729q-31 73 -30 172q0 110 38 252l81 309h381l-90 -336q-18 -72 -20 -131v-11q0 -52 17 -91q19 -43 61.5 -67.5t111.5 -24.5q139 0 222 92t120 233l90 336h381l-82 -309q-72 -270 -221 -424t-391 -197l-143 -532h-381l143 532q-223 43 -288 197zM760 1553l278 305 h369l-401 -305h-246z" />
<glyph unicode="&#xde;" horiz-adv-x="1402" />
<glyph unicode="&#xdf;" d="M-78 2l279 1047q35 106 88 189t133 140.5t191.5 87t263.5 29.5q80 0 154.5 -14.5t133 -50t94 -95t35.5 -149.5q0 -98 -40 -185.5t-132 -164.5q-33 -29 -66.5 -56.5t-56.5 -38.5q37 -57 70 -104t52.5 -95t22.5 -101.5t-16 -125.5q-20 -74 -69 -134t-122 -103t-165 -66.5 t-197 -23.5q-53 0 -104 4l-102 8l61 236q47 -4 86 -8.5t74 -4.5q68 0 126 34t79 110q18 63 -2.5 129.5t-51 120t-58.5 88t-28 36.5t34 29t80 69t91 92t64 99q25 63 19.5 109.5t-28 76t-55.5 43t-61 13.5q-35 0 -73 -14.5t-73 -41t-62.5 -66.5t-41.5 -89l-281 -1059h-346z " />
<glyph unicode="&#xe0;" horiz-adv-x="1228" d="M-4 506q33 127 90.5 234.5t141 185.5t196.5 123t258 45q135 0 237.5 -16.5t170.5 -39.5q80 -25 137 -57l-262 -981h-348l10 37q-33 -20 -70 -35q-33 -12 -76 -22.5t-92 -10.5q-158 0 -248 50.5t-130 128.5q-39 77 -39 169q0 95 24 189zM324 413q-2 -19 -3 -37 q0 -30 7 -57q10 -43 43 -74.5t98 -45.5q23 -6 45 -6q18 0 36 4q40 8 69 24q35 16 65 43l150 557q-23 12 -45 23q-23 10 -49.5 17t-59.5 7q-80 0 -136 -34.5t-96 -87t-64.5 -115t-39.5 -117.5q-14 -51 -20 -101zM473 1483h366l119 -305h-246z" />
<glyph unicode="&#xe1;" horiz-adv-x="1228" d="M-4 506q33 127 90.5 234.5t141 185.5t196.5 123t258 45q135 0 237.5 -16.5t170.5 -39.5q80 -25 137 -57l-262 -981h-348l10 37q-33 -20 -70 -35q-33 -12 -76 -22.5t-92 -10.5q-158 0 -248 50.5t-130 128.5q-39 77 -39 169q0 95 24 189zM324 413q-2 -19 -3 -37 q0 -30 7 -57q10 -43 43 -74.5t98 -45.5q23 -6 45 -6q18 0 36 4q40 8 69 24q35 16 65 43l150 557q-23 12 -45 23q-23 10 -49.5 17t-59.5 7q-80 0 -136 -34.5t-96 -87t-64.5 -115t-39.5 -117.5q-14 -51 -20 -101zM698 1178l278 305h369l-401 -305h-246z" />
<glyph unicode="&#xe2;" horiz-adv-x="1228" d="M-4 506q33 127 90.5 234.5t141 185.5t196.5 123t258 45q135 0 237.5 -16.5t170.5 -39.5q80 -25 137 -57l-262 -981h-348l10 37q-33 -20 -70 -35q-33 -12 -76 -22.5t-92 -10.5q-158 0 -248 50.5t-130 128.5q-39 77 -39 169q0 95 24 189zM324 413q-2 -19 -3 -37 q0 -30 7 -57q10 -43 43 -74.5t98 -45.5q23 -6 45 -6q18 0 36 4q40 8 69 24q35 16 65 43l150 557q-23 12 -45 23q-23 10 -49.5 17t-59.5 7q-80 0 -136 -34.5t-96 -87t-64.5 -115t-39.5 -117.5q-14 -51 -20 -101zM444 1178l307 305h311l150 -305h-262l-80 163l-166 -163h-260z " />
<glyph unicode="&#xe3;" horiz-adv-x="1228" d="M-4 506q33 127 90.5 234.5t141 185.5t196.5 123t258 45q135 0 237.5 -16.5t170.5 -39.5q80 -25 137 -57l-262 -981h-348l10 37q-33 -20 -70 -35q-33 -12 -76 -22.5t-92 -10.5q-158 0 -248 50.5t-130 128.5q-39 77 -39 169q0 95 24 189zM324 413q-2 -19 -3 -37 q0 -30 7 -57q10 -43 43 -74.5t98 -45.5q23 -6 45 -6q18 0 36 4q40 8 69 24q35 16 65 43l150 557q-23 12 -45 23q-23 10 -49.5 17t-59.5 7q-80 0 -136 -34.5t-96 -87t-64.5 -115t-39.5 -117.5q-14 -51 -20 -101zM444 1184q20 49 52 99t74 90t91 64.5t104 24.5q41 0 79 -12 t73 -29q35 -16 66.5 -29.5t56.5 -13.5q35 0 64.5 27t43.5 57h146q-20 -53 -50 -100t-69 -82t-88 -56.5t-106 -21.5q-47 0 -85 11.5t-71 25.5q-35 14 -64.5 25.5t-58.5 11.5q-35 0 -66.5 -28.5t-48.5 -63.5h-143z" />
<glyph unicode="&#xe4;" horiz-adv-x="1228" d="M-4 506q33 127 90.5 234.5t141 185.5t196.5 123t258 45q135 0 237.5 -16.5t170.5 -39.5q80 -25 137 -57l-262 -981h-348l10 37q-33 -20 -70 -35q-33 -12 -76 -22.5t-92 -10.5q-158 0 -248 50.5t-130 128.5q-39 77 -39 169q0 95 24 189zM324 413q-2 -19 -3 -37 q0 -30 7 -57q10 -43 43 -74.5t98 -45.5q23 -6 45 -6q18 0 36 4q40 8 69 24q35 16 65 43l150 557q-23 12 -45 23q-23 10 -49.5 17t-59.5 7q-80 0 -136 -34.5t-96 -87t-64.5 -115t-39.5 -117.5q-14 -51 -20 -101zM464 1206l68 256h305l-67 -256h-306zM899 1206l67 256h307 l-67 -256h-307z" />
<glyph unicode="&#xe5;" horiz-adv-x="1228" d="M-4 506q33 127 90.5 234.5t141 185.5t196.5 123t258 45q135 0 237.5 -16.5t170.5 -39.5q80 -25 137 -57l-262 -981h-348l10 37q-33 -20 -70 -35q-33 -12 -76 -22.5t-92 -10.5q-158 0 -248 50.5t-130 128.5q-39 77 -39 169q0 95 24 189zM324 413q-2 -19 -3 -37 q0 -30 7 -57q10 -43 43 -74.5t98 -45.5q23 -6 45 -6q18 0 36 4q40 8 69 24q35 16 65 43l150 557q-23 12 -45 23q-23 10 -49.5 17t-59.5 7q-80 0 -136 -34.5t-96 -87t-64.5 -115t-39.5 -117.5q-14 -51 -20 -101zM642.5 1283q-6.5 40 6.5 83q12 45 39.5 85t65.5 69.5t82 47 t89 17.5t80 -17.5t57.5 -46t29.5 -69.5t-5 -86t-40 -85t-65.5 -69.5t-82.5 -47t-91 -17.5q-45 0 -80.5 17.5t-57 48t-28 70.5zM761 1366q-12 -43 10.5 -74.5t67.5 -31.5t84 31.5t51 74.5q12 47 -11 77t-69 30q-45 0 -83 -30t-50 -77z" />
<glyph unicode="&#xe6;" horiz-adv-x="1933" d="M10 291q18 96 71.5 160.5t128.5 106.5t162 66.5t173 39.5q37 6 79 11t79.5 8t65.5 4t36 1l10 37q12 49 9 77.5t-20.5 43t-48 18.5t-73.5 4q-49 0 -113.5 -12t-130 -29.5t-124 -37t-97.5 -33.5l70 260q49 14 120.5 27.5t145.5 24.5t139.5 18.5t106.5 7.5q55 0 107 -5.5 t98.5 -17.5t83 -34.5t61.5 -55.5q84 57 170 86t162 29q113 0 196.5 -35t136 -96.5t74 -142.5t10.5 -173q-6 -49 -17 -100t-34 -105h-766q-10 -43 -6 -87t28.5 -79.5t72 -59t124.5 -23.5q51 0 114 11t125.5 27.5t121.5 36t106 37.5l-122 -274q-2 -4 -43 -14.5t-104.5 -21.5 t-141.5 -19.5t-152 -8.5q-248 0 -342 125q-41 -23 -89 -45t-102.5 -39.5t-112.5 -28t-120 -10.5q-102 0 -189 10.5t-147.5 44t-87.5 96.5t-4 169zM362 315q-16 -66 19 -93t94 -27q70 0 123 7t84 17l63 244q-16 0 -43.5 -1t-57.5 -2t-57.5 -4t-43.5 -5q-63 -14 -114 -43.5 t-67 -92.5zM1139 657h432q8 45 6 84t-18.5 68t-50 45t-87.5 16q-109 0 -175 -57.5t-107 -155.5z" />
<glyph unicode="&#xe7;" horiz-adv-x="1040" d="M22.5 343q-4.5 97 24.5 204q31 113 94.5 216t156.5 182t214 127t266 48q123 0 202 -14t142 -33l-100 -299q0 -2 -17.5 7.5t-53.5 20.5t-90 21.5t-130 10.5q-63 0 -118.5 -23t-99.5 -62.5t-75.5 -93t-46.5 -112.5q-16 -59 -13 -112.5t26.5 -93.5t65.5 -62.5t105 -22.5 q76 0 136.5 11t102.5 25.5t65 25.5l22 12l-61 -308q-70 -18 -152 -31.5t-192 -17.5l-88 -92q25 4 44 5t44 1q29 0 57.5 -8t49 -27.5t28.5 -51.5t-4 -77q-14 -55 -45 -93t-73 -61.5t-93 -33.5t-105 -10q-47 0 -89 13t-77 24q6 33 13 55q4 20 9 36.5t5 18.5q35 -14 64.5 -20 t70.5 -10t78 14t47 57q10 43 -3 62.5t-43 25.5t-72 3t-85 -5l156 178q-121 12 -200 64.5t-118.5 130.5t-44 175z" />
<glyph unicode="&#xe8;" horiz-adv-x="1243" d="M40 298q-4 29 -4 60q0 82 25 179q37 137 110.5 241.5t170 175t211 106.5t231.5 36q113 0 197 -35t136 -96.5t74 -142.5q15 -55 14 -114q0 -29 -3 -59q-6 -49 -17.5 -100t-33.5 -105h-766q-7 -31 -8 -62q0 -12 2 -25q4 -44 28.5 -79.5t71.5 -59t125 -23.5q51 0 113.5 11 t125 27.5t122 36t106.5 37.5l-123 -274q-2 -4 -43 -14.5t-104.5 -21.5t-141.5 -19.5t-151 -8.5q-139 0 -238.5 39t-158 112t-71.5 178zM442 657h432q7 36 7 69q0 8 -1 15q-2 39 -18.5 68t-50 45t-86.5 16q-109 0 -175.5 -57.5t-107.5 -155.5zM473 1483h366l119 -305h-246z " />
<glyph unicode="&#xe9;" horiz-adv-x="1243" d="M40 298q-4 29 -4 60q0 82 25 179q37 137 110.5 241.5t170 175t211 106.5t231.5 36q113 0 197 -35t136 -96.5t74 -142.5q15 -55 14 -114q0 -29 -3 -59q-6 -49 -17.5 -100t-33.5 -105h-766q-7 -31 -8 -62q0 -12 2 -25q4 -44 28.5 -79.5t71.5 -59t125 -23.5q51 0 113.5 11 t125 27.5t122 36t106.5 37.5l-123 -274q-2 -4 -43 -14.5t-104.5 -21.5t-141.5 -19.5t-151 -8.5q-139 0 -238.5 39t-158 112t-71.5 178zM442 657h432q7 36 7 69q0 8 -1 15q-2 39 -18.5 68t-50 45t-86.5 16q-109 0 -175.5 -57.5t-107.5 -155.5zM698 1178l278 305h369 l-401 -305h-246z" />
<glyph unicode="&#xea;" horiz-adv-x="1243" d="M40 298q-4 29 -4 60q0 82 25 179q37 137 110.5 241.5t170 175t211 106.5t231.5 36q113 0 197 -35t136 -96.5t74 -142.5q15 -55 14 -114q0 -29 -3 -59q-6 -49 -17.5 -100t-33.5 -105h-766q-7 -31 -8 -62q0 -12 2 -25q4 -44 28.5 -79.5t71.5 -59t125 -23.5q51 0 113.5 11 t125 27.5t122 36t106.5 37.5l-123 -274q-2 -4 -43 -14.5t-104.5 -21.5t-141.5 -19.5t-151 -8.5q-139 0 -238.5 39t-158 112t-71.5 178zM442 657h432q7 36 7 69q0 8 -1 15q-2 39 -18.5 68t-50 45t-86.5 16q-109 0 -175.5 -57.5t-107.5 -155.5zM444 1178l307 305h311l150 -305 h-262l-80 163l-166 -163h-260z" />
<glyph unicode="&#xeb;" horiz-adv-x="1243" d="M40 298q-4 29 -4 60q0 82 25 179q37 137 110.5 241.5t170 175t211 106.5t231.5 36q113 0 197 -35t136 -96.5t74 -142.5q15 -55 14 -114q0 -29 -3 -59q-6 -49 -17.5 -100t-33.5 -105h-766q-7 -31 -8 -62q0 -12 2 -25q4 -44 28.5 -79.5t71.5 -59t125 -23.5q51 0 113.5 11 t125 27.5t122 36t106.5 37.5l-123 -274q-2 -4 -43 -14.5t-104.5 -21.5t-141.5 -19.5t-151 -8.5q-139 0 -238.5 39t-158 112t-71.5 178zM442 657h432q7 36 7 69q0 8 -1 15q-2 39 -18.5 68t-50 45t-86.5 16q-109 0 -175.5 -57.5t-107.5 -155.5zM464 1206l68 256h305l-67 -256 h-306zM899 1206l67 256h307l-67 -256h-307z" />
<glyph unicode="&#xec;" horiz-adv-x="593" d="M-12 0l282 1063h348l-284 -1063h-346zM154 1483h366l119 -305h-246z" />
<glyph unicode="&#xed;" horiz-adv-x="593" d="M-2 0l282 1063h348l-284 -1063h-346zM389 1178l278 305h369l-401 -305h-246z" />
<glyph unicode="&#xee;" horiz-adv-x="593" d="M-12 0l282 1063h348l-284 -1063h-346zM125 1178l307 305h311l150 -305h-262l-80 163l-166 -163h-260z" />
<glyph unicode="&#xef;" horiz-adv-x="593" d="M-12 0l282 1063h348l-284 -1063h-346zM145 1206l68 256h305l-67 -256h-306zM580 1206l67 256h307l-67 -256h-307z" />
<glyph unicode="&#xf0;" horiz-adv-x="1251" d="M-27.5 286.5q-15.5 96.5 15.5 209.5q29 113 94 209t152.5 166.5t188.5 110.5t202 40q51 0 101 -7t85 -36l6 4q-14 63 -45 120.5t-72 108.5l-301 -143l-104 123l285 135q-47 39 -94.5 65.5t-86.5 41.5l275 159q66 -25 120 -60.5t76 -64.5l293 140l105 -125l-279 -133 q57 -61 97 -147.5t59.5 -187t16.5 -212t-34 -225.5q-39 -143 -110.5 -256t-166.5 -192t-210 -120t-238 -41t-215 40t-146 110.5t-69.5 167zM321.5 408.5q-2.5 -46.5 11 -85t47.5 -63t95 -24.5t108.5 24.5t83 63t58.5 85t33 87.5t12 87t-12.5 84t-48 63.5t-95.5 25.5 q-61 0 -108 -25.5t-82 -63.5t-57.5 -84t-32.5 -87t-12.5 -87.5z" />
<glyph unicode="&#xf1;" horiz-adv-x="1296" d="M-20 0l258 981l56 17q56 17 148.5 39t209 39.5t239.5 17.5q109 0 177.5 -19.5t108.5 -53.5t55 -76t15 -88t-9 -91t-19 -84l-183 -682h-348l154 573q14 55 27 108q11 42 11 77v16q-3 41 -33 66.5t-102 25.5q-39 0 -74.5 -7t-64.5 -17q-33 -10 -61 -25l-219 -817h-346z M475 1184q20 49 52 99t74 90t91 64.5t104 24.5q41 0 79 -12t73 -29q35 -16 66.5 -29.5t56.5 -13.5q35 0 64.5 27t43.5 57h146q-20 -53 -50 -100t-69 -82t-88 -56.5t-106 -21.5q-47 0 -85 11.5t-71 25.5q-35 14 -64.5 25.5t-58.5 11.5q-35 0 -66.5 -28.5t-48.5 -63.5h-143z " />
<glyph unicode="&#xf2;" horiz-adv-x="1243" d="M41 309q-3 26 -3 53q0 80 23 170q31 119 96.5 222.5t157.5 178.5t208 119t247 44t224 -43t145.5 -119t62.5 -179q3 -26 2 -53q0 -80 -23 -170q-33 -121 -98.5 -223t-157.5 -178t-208.5 -119t-247.5 -43t-223.5 44t-143.5 119t-61 177zM378 404q-2 -21 -2 -41q0 -36 8 -66 q11 -47 44.5 -74.5t99.5 -27.5q63 0 113.5 27.5t87.5 74.5t62.5 107.5t43.5 125.5q18 68 26 129q3 23 2 44q0 35 -7 65q-12 47 -47 74.5t-99 27.5q-63 0 -112.5 -27.5t-86 -74.5t-63 -108.5t-45.5 -129.5q-19 -66 -25 -126zM473 1483h366l119 -305h-246z" />
<glyph unicode="&#xf3;" horiz-adv-x="1243" d="M41 309q-3 26 -3 53q0 80 23 170q31 119 96.5 222.5t157.5 178.5t208 119t247 44t224 -43t145.5 -119t62.5 -179q3 -26 2 -53q0 -80 -23 -170q-33 -121 -98.5 -223t-157.5 -178t-208.5 -119t-247.5 -43t-223.5 44t-143.5 119t-61 177zM378 404q-2 -21 -2 -41q0 -36 8 -66 q11 -47 44.5 -74.5t99.5 -27.5q63 0 113.5 27.5t87.5 74.5t62.5 107.5t43.5 125.5q18 68 26 129q3 23 2 44q0 35 -7 65q-12 47 -47 74.5t-99 27.5q-63 0 -112.5 -27.5t-86 -74.5t-63 -108.5t-45.5 -129.5q-19 -66 -25 -126zM698 1178l278 305h369l-401 -305h-246z" />
<glyph unicode="&#xf4;" horiz-adv-x="1243" d="M41 309q-3 26 -3 53q0 80 23 170q31 119 96.5 222.5t157.5 178.5t208 119t247 44t224 -43t145.5 -119t62.5 -179q3 -26 2 -53q0 -80 -23 -170q-33 -121 -98.5 -223t-157.5 -178t-208.5 -119t-247.5 -43t-223.5 44t-143.5 119t-61 177zM378 404q-2 -21 -2 -41q0 -36 8 -66 q11 -47 44.5 -74.5t99.5 -27.5q63 0 113.5 27.5t87.5 74.5t62.5 107.5t43.5 125.5q18 68 26 129q3 23 2 44q0 35 -7 65q-12 47 -47 74.5t-99 27.5q-63 0 -112.5 -27.5t-86 -74.5t-63 -108.5t-45.5 -129.5q-19 -66 -25 -126zM444 1178l307 305h311l150 -305h-262l-80 163 l-166 -163h-260z" />
<glyph unicode="&#xf5;" horiz-adv-x="1243" d="M41 309q-3 26 -3 53q0 80 23 170q31 119 96.5 222.5t157.5 178.5t208 119t247 44t224 -43t145.5 -119t62.5 -179q3 -26 2 -53q0 -80 -23 -170q-33 -121 -98.5 -223t-157.5 -178t-208.5 -119t-247.5 -43t-223.5 44t-143.5 119t-61 177zM378 404q-2 -21 -2 -41q0 -36 8 -66 q11 -47 44.5 -74.5t99.5 -27.5q63 0 113.5 27.5t87.5 74.5t62.5 107.5t43.5 125.5q18 68 26 129q3 23 2 44q0 35 -7 65q-12 47 -47 74.5t-99 27.5q-63 0 -112.5 -27.5t-86 -74.5t-63 -108.5t-45.5 -129.5q-19 -66 -25 -126zM444 1184q20 49 52 99t74 90t91 64.5t104 24.5 q41 0 79 -12t73 -29q35 -16 66.5 -29.5t56.5 -13.5q35 0 64.5 27t43.5 57h146q-20 -53 -50 -100t-69 -82t-88 -56.5t-106 -21.5q-47 0 -85 11.5t-71 25.5q-35 14 -64.5 25.5t-58.5 11.5q-35 0 -66.5 -28.5t-48.5 -63.5h-143z" />
<glyph unicode="&#xf6;" horiz-adv-x="1247" d="M45 309q-3 26 -3 53q0 80 23 170q31 119 96.5 222.5t157.5 178.5t208 119t247 44t224 -43t145.5 -119t62.5 -179q3 -26 2 -53q0 -80 -23 -170q-33 -121 -98.5 -223t-157.5 -178t-208.5 -119t-247.5 -43t-223.5 44t-143.5 119t-61 177zM382 404q-2 -21 -2 -41q0 -36 8 -66 q11 -47 44.5 -74.5t99.5 -27.5q63 0 113.5 27.5t87.5 74.5t62.5 107.5t43.5 125.5q18 68 26 129q3 23 2 44q0 35 -7 65q-12 47 -47 74.5t-99 27.5q-63 0 -112.5 -27.5t-86 -74.5t-63 -108.5t-45.5 -129.5q-19 -66 -25 -126zM469 1206l68 256h305l-67 -256h-306zM904 1206 l67 256h307l-67 -256h-307z" />
<glyph unicode="&#xf7;" horiz-adv-x="1228" d="M57 371l80 295h1032l-79 -295h-1033zM293 16.5q-6 36.5 4 77.5q12 43 37.5 80t60.5 64.5t76 43t84 15.5q86 0 128 -58.5t19 -144.5q-10 -41 -35.5 -77.5t-60.5 -64.5t-76 -44.5t-84 -16.5t-75.5 16.5t-52 44.5t-25.5 64.5zM524 942q12 43 38 80t59.5 64.5t74.5 43 t84 15.5q86 0 129 -58.5t21 -144.5q-12 -41 -38 -78t-60.5 -64.5t-75.5 -44t-84 -16.5q-86 0 -128.5 59.5t-19.5 143.5z" />
<glyph unicode="&#xf8;" horiz-adv-x="1251" d="M-47 -4l158 141q-53 76 -64.5 176.5t19.5 216.5q33 119 101.5 222.5t162.5 179.5t208.5 119t237.5 43q186 0 301 -99l137 123l70 -78l-139 -122q51 -76 61.5 -174.5t-20.5 -213.5q-31 -121 -99.5 -223t-164 -177t-210 -118t-237.5 -43q-186 0 -301 97l-154 -136zM397 393 l428 379q-20 27 -48.5 41t-71.5 14q-61 0 -108.5 -27.5t-83.5 -70.5t-60.5 -95t-38.5 -104q-21 -71 -17 -137zM430 289q31 -53 117 -53q61 0 109.5 26.5t84 69.5t60 95t37.5 103q18 63 18 134z" />
<glyph unicode="&#xf9;" horiz-adv-x="1296" d="M49 252q10 72 26 129l183 682h348l-154 -574q-14 -55 -27 -107q-11 -42 -11 -77v-16q3 -41 33 -66.5t102 -25.5q39 0 74.5 7t64.5 17q33 10 61 25l219 817h349l-261 -981l-56 -17q-56 -17 -148.5 -39t-209 -39.5t-239.5 -17.5q-162 0 -238.5 43t-101.5 106q-17 44 -17 93 q0 20 3 41zM494 1483h366l119 -305h-246z" />
<glyph unicode="&#xfa;" horiz-adv-x="1296" d="M49 252q10 72 26 129l183 682h348l-154 -574q-14 -55 -27 -107q-11 -42 -11 -77v-16q3 -41 33 -66.5t102 -25.5q39 0 74.5 7t64.5 17q33 10 61 25l219 817h349l-261 -981l-56 -17q-56 -17 -148.5 -39t-209 -39.5t-239.5 -17.5q-162 0 -238.5 43t-101.5 106q-17 44 -17 93 q0 20 3 41zM719 1178l278 305h369l-401 -305h-246z" />
<glyph unicode="&#xfb;" horiz-adv-x="1296" d="M49 252q10 72 26 129l183 682h348l-154 -574q-14 -55 -27 -107q-11 -42 -11 -77v-16q3 -41 33 -66.5t102 -25.5q39 0 74.5 7t64.5 17q33 10 61 25l219 817h349l-261 -981l-56 -17q-56 -17 -148.5 -39t-209 -39.5t-239.5 -17.5q-162 0 -238.5 43t-101.5 106q-17 44 -17 93 q0 20 3 41zM465 1178l307 305h311l150 -305h-262l-80 163l-166 -163h-260z" />
<glyph unicode="&#xfc;" horiz-adv-x="1296" d="M49 252q10 72 26 129l183 682h348l-154 -574q-14 -55 -27 -107q-11 -42 -11 -77v-16q3 -41 33 -66.5t102 -25.5q39 0 74.5 7t64.5 17q33 10 61 25l219 817h349l-261 -981l-56 -17q-56 -17 -148.5 -39t-209 -39.5t-239.5 -17.5q-162 0 -238.5 43t-101.5 106q-17 44 -17 93 q0 20 3 41zM485 1206l68 256h305l-67 -256h-306zM920 1206l67 256h307l-67 -256h-307z" />
<glyph unicode="&#xfd;" horiz-adv-x="1099" d="M-22 -195q51 20 106.5 51t100.5 68t71 77q25 37 25 77q0 6 -0.5 11.5t-1 12l-1 13t-1.5 16t-2 17.5q-4 44 -14.5 147.5t-29 286t-48.5 481.5h368l15 -692h4l387 692h356l-612 -954q-68 -104 -126.5 -181.5t-118.5 -135.5t-131 -106t-163 -96zM627 1178l278 305h369 l-401 -305h-246z" />
<glyph unicode="&#xfe;" d="M-125 -356l483 1818h349l-138 -516h4q147 147 342 148q115 0 187 -49.5t105.5 -131.5t32.5 -187t-32 -218q-29 -104 -83 -200.5t-129.5 -172.5t-172 -121t-209.5 -45q-193 0 -264 146h-4l-125 -471h-346zM426 415.5q-4 -57.5 9.5 -97t48 -61t94.5 -21.5q57 0 105 27.5 t84 71.5t61.5 98t39.5 110q14 51 17.5 101t-11 91t-47 66.5t-90.5 25.5q-35 0 -75.5 -13t-80.5 -46t-75 -88t-57 -137q-19 -70 -23 -127.5z" />
<glyph unicode="&#xff;" horiz-adv-x="1099" d="M-22 -195q51 20 106.5 51t100.5 68t71 77q25 37 25 77q0 6 -0.5 11.5t-1 12l-1 13t-1.5 16t-2 17.5q-4 44 -14.5 147.5t-29 286t-48.5 481.5h368l15 -692h4l387 692h356l-612 -954q-68 -104 -126.5 -181.5t-118.5 -135.5t-131 -106t-163 -96zM393 1206l68 256h305 l-67 -256h-306zM828 1206l67 256h307l-67 -256h-307z" />
<glyph unicode="&#x131;" horiz-adv-x="600" d="M-20 0l282 1063h348l-284 -1063h-346z" />
<glyph unicode="&#x152;" horiz-adv-x="2217" d="M45 445.5q-10 138.5 29 285.5t123 285.5t201.5 244t263 169t309.5 63.5q90 0 173 -26.5t122 -100.5h4l24 96h1067l-82 -305h-710l-68 -256h649l-79 -295h-650l-73 -278h727l-88 -328h-1084l25 92q-84 -72 -184.5 -97.5t-180.5 -25.5q-164 0 -274.5 63.5t-172 169 t-71.5 244zM429 571.5q-3 -77.5 22.5 -139t83 -98.5t157.5 -37q70 0 130.5 28.5t109.5 76t84 107.5t53 124l51 196q18 63 15.5 124t-26.5 108t-70 75.5t-115 28.5q-100 0 -178 -36.5t-135.5 -98t-96.5 -139.5t-59 -160q-23 -82 -26 -159.5z" />
<glyph unicode="&#x153;" horiz-adv-x="1935" d="M24.5 309.5q-10.5 102.5 20.5 222.5q31 119 96.5 222.5t157.5 178.5t208 119t247 44q123 0 210 -41t121 -119l-2 -6q178 166 400 166q113 0 196.5 -35t136 -96.5t74 -142.5t11.5 -173q-6 -49 -17.5 -100t-34.5 -105h-766q-10 -43 -6 -87t28.5 -79.5t72 -59t125.5 -23.5 q51 0 113.5 11t125 27.5t121.5 36t106 37.5l-122 -274q-2 -4 -43 -14.5t-104.5 -21.5t-141.5 -19.5t-152 -8.5q-143 0 -228 40t-122 118l-2 -2q-31 -33 -75 -60.5t-96 -49t-111.5 -34t-118.5 -12.5q-131 0 -223.5 44t-143.5 119t-61.5 177.5zM362.5 404.5 q-6.5 -60.5 5 -107.5t45 -74.5t99.5 -27.5q63 0 113.5 27.5t87.5 74.5t62.5 107.5t43.5 125.5q18 68 25.5 129.5t-5 108.5t-47 74.5t-98.5 27.5q-63 0 -112.5 -27.5t-86 -74.5t-63 -108.5t-45.5 -129.5q-18 -65 -24.5 -125.5zM1141 657h432q8 45 6 84t-18.5 68t-50 45 t-87.5 16q-109 0 -175 -57.5t-107 -155.5z" />
<glyph unicode="&#x178;" horiz-adv-x="1366" d="M152 729q-31 73 -30 172q0 110 38 252l81 309h381l-90 -336q-18 -72 -20 -131v-11q0 -52 17 -91q19 -43 61.5 -67.5t111.5 -24.5q139 0 222 92t120 233l90 336h381l-82 -309q-72 -270 -221 -424t-391 -197l-143 -532h-381l143 532q-223 43 -288 197zM526 1581l68 256h305 l-67 -256h-306zM961 1581l67 256h307l-67 -256h-307z" />
<glyph unicode="&#x2c6;" horiz-adv-x="606" d="M125 1178l307 305h311l150 -305h-262l-80 163l-166 -163h-260z" />
<glyph unicode="&#x2da;" horiz-adv-x="606" d="M323.5 1283q-6.5 40 6.5 83q12 45 39.5 85t65.5 69.5t82 47t89 17.5t80 -17.5t57.5 -46t29.5 -69.5t-5 -86t-40 -85t-65.5 -69.5t-82.5 -47t-91 -17.5q-45 0 -80.5 17.5t-57 48t-28 70.5zM442 1366q-12 -43 10.5 -74.5t67.5 -31.5t84 31.5t51 74.5q12 47 -11 77t-69 30 q-45 0 -83 -30t-50 -77z" />
<glyph unicode="&#x2dc;" horiz-adv-x="606" d="M125 1184q20 49 52 99t74 90t91 64.5t104 24.5q41 0 79 -12t73 -29q35 -16 66.5 -29.5t56.5 -13.5q35 0 64.5 27t43.5 57h146q-20 -53 -50 -100t-69 -82t-88 -56.5t-106 -21.5q-47 0 -85 11.5t-71 25.5q-35 14 -64.5 25.5t-58.5 11.5q-35 0 -66.5 -28.5t-48.5 -63.5h-143 z" />
<glyph unicode="&#x2000;" horiz-adv-x="972" />
<glyph unicode="&#x2001;" horiz-adv-x="1947" />
<glyph unicode="&#x2002;" horiz-adv-x="972" />
<glyph unicode="&#x2003;" horiz-adv-x="1947" />
<glyph unicode="&#x2004;" horiz-adv-x="649" />
<glyph unicode="&#x2005;" horiz-adv-x="485" />
<glyph unicode="&#x2006;" horiz-adv-x="323" />
<glyph unicode="&#x2007;" horiz-adv-x="323" />
<glyph unicode="&#x2008;" horiz-adv-x="241" />
<glyph unicode="&#x2009;" horiz-adv-x="389" />
<glyph unicode="&#x200a;" horiz-adv-x="106" />
<glyph unicode="&#x2010;" horiz-adv-x="833" d="M57 410l80 295h637l-80 -295h-637z" />
<glyph unicode="&#x2011;" horiz-adv-x="833" d="M57 410l80 295h637l-80 -295h-637z" />
<glyph unicode="&#x2012;" horiz-adv-x="833" d="M57 410l80 295h637l-80 -295h-637z" />
<glyph unicode="&#x2013;" horiz-adv-x="1024" d="M-39 410l78 295h1024l-80 -295h-1022z" />
<glyph unicode="&#x2014;" horiz-adv-x="2048" d="M225 410l80 295h1516l-80 -295h-1516z" />
<glyph unicode="&#x2018;" horiz-adv-x="550" d="M160 772l78 291q27 100 75.5 173t108 121t124 73.5t124.5 31.5l-45 -164q-88 -23 -135.5 -75t-63.5 -117h102q18 0 27.5 -13.5t5.5 -33.5l-78 -287q-4 -20 -21.5 -33.5t-35.5 -13.5h-233q-18 0 -27.5 13.5t-5.5 33.5z" />
<glyph unicode="&#x2019;" horiz-adv-x="550" d="M158 725l45 164q88 23 135 75t63 117h-102q-18 0 -27.5 13.5t-5.5 33.5l78 287q4 20 21.5 33.5t35.5 13.5h234q18 0 27.5 -13t5.5 -34l-78 -291q-29 -102 -77 -173.5t-107.5 -120t-124 -74t-123.5 -31.5z" />
<glyph unicode="&#x201a;" horiz-adv-x="606" d="M43 -356l45 163q88 23 135 75t64 118h-103q-18 0 -27.5 13.5t-4.5 33.5l77 287q4 20 21.5 33.5t36.5 13.5h233q18 0 27.5 -13.5t5.5 -33.5l-78 -291q-29 -102 -77 -174t-107.5 -120t-124 -73.5t-123.5 -31.5z" />
<glyph unicode="&#x201c;" horiz-adv-x="1024" d="M160 772l78 291q27 100 75.5 173t108 121t124 73.5t124.5 31.5l-45 -164q-88 -23 -135.5 -75t-63.5 -117h102q18 0 27.5 -13.5t5.5 -33.5l-78 -287q-4 -20 -21.5 -33.5t-35.5 -13.5h-233q-18 0 -27.5 13.5t-5.5 33.5zM633 772l78 291q27 100 76 173t108 121t123.5 73.5 t124.5 31.5l-45 -164q-88 -23 -135.5 -75t-63.5 -117h102q18 0 27.5 -13.5t5.5 -33.5l-78 -287q-4 -20 -21 -33.5t-36 -13.5h-233q-18 0 -27.5 13.5t-5.5 33.5z" />
<glyph unicode="&#x201d;" horiz-adv-x="1024" d="M158 725l45 164q88 23 135 75t63 117h-102q-18 0 -27.5 13.5t-5.5 33.5l78 287q4 20 21.5 33.5t35.5 13.5h234q18 0 27.5 -13t5.5 -34l-78 -291q-29 -102 -77 -173.5t-107.5 -120t-124 -74t-123.5 -31.5zM631 725l45 164q88 23 135 75t63 117h-102q-18 0 -27.5 13.5 t-5.5 33.5l78 287q4 20 21.5 33.5t35.5 13.5h234q18 0 27.5 -13t5.5 -34l-78 -291q-29 -102 -77 -173.5t-107.5 -120t-124 -74t-123.5 -31.5z" />
<glyph unicode="&#x201e;" horiz-adv-x="1024" d="M12 -356l45 163q88 23 135.5 75t63.5 118h-102q-18 0 -27.5 13.5t-5.5 33.5l78 287q4 20 21.5 33.5t35.5 13.5h233q18 0 27.5 -13.5t5.5 -33.5l-78 -291q-29 -102 -77 -174t-107 -120t-124 -73.5t-124 -31.5zM485 -356l45 163q88 23 135.5 75t63.5 118h-102 q-18 0 -27.5 13.5t-5.5 33.5l78 287q4 20 21.5 33.5t35.5 13.5h234q18 0 27 -13.5t5 -33.5l-77 -291q-29 -102 -77 -174t-107.5 -120t-124.5 -73.5t-124 -31.5z" />
<glyph unicode="&#x2022;" horiz-adv-x="1024" d="M137 588.5q-10 66.5 10 142.5t66.5 142.5t109 115.5t136 78t149.5 29t135.5 -29t96.5 -78t48 -115.5t-9 -142.5t-67.5 -142.5t-110 -116.5t-137.5 -78.5t-150 -28.5q-76 0 -135.5 28.5t-95.5 78.5t-46 116.5z" />
<glyph unicode="&#x2026;" horiz-adv-x="2048" d="M100 0l101 381h381l-101 -381h-381zM782 0l101 381h381l-101 -381h-381zM1464 0l101 381h381l-101 -381h-381z" />
<glyph unicode="&#x202f;" horiz-adv-x="389" />
<glyph unicode="&#x2039;" horiz-adv-x="493" d="M41 397l84 312l395 262l-76 -281l-213 -137l142 -135l-76 -281z" />
<glyph unicode="&#x203a;" horiz-adv-x="493" d="M-27 137l74 281l213 137l-141 135l76 281l256 -260l-84 -312z" />
<glyph unicode="&#x205f;" horiz-adv-x="485" />
<glyph unicode="&#x20ac;" d="M-76 461l45 168h148q4 20 9 41.5t11 44.5q10 37 21 65h-150l45 168h172q57 115 134 208t169.5 157.5t199 99.5t220.5 35q92 0 159 -7t116 -18.5t84.5 -26t68.5 -26.5l-84 -315q-76 47 -175 85t-208 38t-198.5 -65.5t-155.5 -164.5h578l-111 -168h-549q-10 -20 -15 -37.5 t-9 -37.5q-6 -20 -9.5 -39t-7.5 -37h492l-111 -168h-389q12 -98 67.5 -160.5t165.5 -62.5q53 0 112.5 14t119 35.5t117 47t106.5 50.5l-84 -317q-41 -12 -85 -30t-100.5 -33t-127 -25.5t-162.5 -10.5q-229 0 -346 129t-111 363h-172z" />
<glyph unicode="&#x2122;" horiz-adv-x="2048" d="M143 1268l54 194h706l-53 -194h-225l-174 -650h-256l174 650h-226zM846 618l227 844h320l51 -489l313 489h320l-228 -844h-225l150 553h-5l-331 -553h-181l-32 553h-4l-150 -553h-225z" />
<glyph unicode="&#xe000;" horiz-adv-x="1065" d="M0 1065h1065v-1065h-1065v1065z" />
<glyph unicode="&#xfb01;" horiz-adv-x="1353" d="M-246 -195q109 57 198 149.5t128 231.5l172 652h-168l61 225h168q35 106 88.5 182t134 124t192.5 70.5t263 22.5l-63 -235q-111 0 -176.5 -32t-92.5 -132h701l-285 -1063h-348l223 838h-350l-178 -678q-33 -106 -82 -192.5t-111.5 -156t-135.5 -124t-152 -97.5z M1047 1196l71 266h348l-71 -266h-348z" />
<glyph unicode="&#xfb02;" horiz-adv-x="1376" d="M-246 -195q109 57 198 149.5t128 231.5l172 652h-168l61 225h168q35 106 88.5 182t134 124t192.5 70.5t263 22.5h498l-391 -1462h-348l327 1227h-149q-111 0 -176.5 -32t-92.5 -132h211l-61 -225h-209l-178 -678q-33 -106 -82 -192.5t-111.5 -156t-135.5 -124t-152 -97.5 z" />
<glyph unicode="&#xfb03;" horiz-adv-x="2185" d="M1561 0l282 1063h348l-284 -1063h-346zM1878 1196l72 266h348l-72 -266h-348zM545 -195q109 57 198 149.5t128 231.5l172 652h-168l61 225h168q35 106 88.5 182t134 124t192.5 70.5t263 22.5l-63 -235q-111 0 -176.5 -32t-92.5 -132h211l-61 -225h-209l-178 -678 q-33 -106 -82 -192.5t-111.5 -156t-135.5 -124t-152 -97.5zM-246 -195q109 57 198 149.5t128 231.5l172 652h-168l61 225h168q35 106 88.5 182t134 124t192.5 70.5t263 22.5l-63 -235q-111 0 -176.5 -32t-92.5 -132h211l-61 -225h-209l-178 -678q-33 -106 -82 -192.5 t-111.5 -156t-135.5 -124t-152 -97.5z" />
<glyph unicode="&#xfb04;" horiz-adv-x="2185" d="M1561 0l389 1462h348l-391 -1462h-346zM545 -195q109 57 198 149.5t128 231.5l172 652h-168l61 225h168q35 106 88.5 182t134 124t192.5 70.5t263 22.5l-63 -235q-111 0 -176.5 -32t-92.5 -132h211l-61 -225h-209l-178 -678q-33 -106 -82 -192.5t-111.5 -156t-135.5 -124 t-152 -97.5zM-246 -195q109 57 198 149.5t128 231.5l172 652h-168l61 225h168q35 106 88.5 182t134 124t192.5 70.5t263 22.5l-63 -235q-111 0 -176.5 -32t-92.5 -132h211l-61 -225h-209l-178 -678q-33 -106 -82 -192.5t-111.5 -156t-135.5 -124t-152 -97.5z" />
</font>
</defs>
</svg>
